Позывной «Пассажир» (Илья Казанков) [2023, драма, WEB-DLRip-AVC]

Автор Сообщение
sergoufaVDV ®

Стаж: 8 лет 6 месяцев
Сообщений: 1229
Откуда: Нагаево

Создавать темы sergoufaVDV ® написал(а)
18-Июн-2024 20:05
Позывной «Пассажир»
Жанр: драма
Год выпуска: 2023
Продолжительность: 01:31:19
Оригинальная аудиодорожка: русский
Режиссер: Илья Казанков
В ролях: Антон Шагин, Виталий Кищенко, Сергей Горобченко, Алексей Шевченков, Александр Михайлов, Надежда Маркина, Сослан Фидаров, Никита Тезин, Алексей Дмитриев, Вадим Радченко, Андрей Фомин, Владимир Стеклов, Люба Баханкова, Лев Семашков, Джал Наранов, Даниил Кользенов, Чеслав Головинец, Алексей Солончев, Максим Деричев, Софья Казанкова, Варвара Казанкова, Алексей Ильин, Иван Ушанов, Полина Белова, Татьяна Ташкова, Владислав Радзивилл

Описание: 2015 год. Молодой писатель Николай Рябинин живет в столице, проводит вечера в модных заведениях и не особо интересуется повесткой дня, пока не узнает от родителей, что его брат, с которым он давно рассорился, пропал без вести на Донбассе. Николай отправляется на поиски, не подозревая, что эта миссия навсегда изменит его жизнь.
Качество: WEB-DLRip-AVC
Формат видео: MKV
Видео: 1072x448 (2.40:1), 25.000 fps, AVC, ~2065 Kbps, 0.172 bits/pixel
Аудио: Russian, 48.0 KHz, AC3, 2 ch, 224 Kbps

MediaInfo

Формат : Matroska
Версия формата : Version 4
Размер файла : 1,46 Гбайт
Продолжительность : 1 ч. 31 м.
Режим общего битрейта : Переменный
Общий поток : 2 291 Кбит/сек
Частота кадров : 25,000 кадров/сек
Название фильма : Позывной «Пассажир» | Rip by порошков
Дата кодирования : 2024-04-11 15:19:00 UTC
Программа кодирования : mkvmerge v83.0 ('Circle Of Friends') 64-bit
Библиотека кодирования : libebml v1.4.5 + libmatroska v1.7.1
Видео
Идентификатор : 1
Формат : AVC
Формат/Информация : Advanced Video Codec
Профиль формата : High@L4.1
Настройки формата : CABAC / 16 Ref Frames
Параметр CABAC формата : Да
Параметр RefFrames формата : 16 кадров
Идентификатор кодека : V_MPEG4/ISO/AVC
Продолжительность : 1 ч. 31 м.
Вид битрейта : Переменный
Битрейт : 2 065 Кбит/сек
Максимальный битрейт : 62,5 Мбит/сек
Ширина : 1 072 пикселя
Высота : 448 пикселей
Соотношение сторон : 2,39:1
Режим частоты кадров : Постоянный
Частота кадров : 25,000 кадров/сек
Цветовое пространство : YUV
Субдискретизация насыщенности : 4:2:0
Битовая глубина : 8 бит
Тип развёртки : Прогрессивная
Бит/(Пиксели*Кадры) : 0.172
Размер потока : 1,32 Гбайт (90%)
Библиотека кодирования : x264 core 164 r3164 c196240
Настройки программы : cabac=1 / ref=16 / deblock=1:-1:-1 / analyse=0x3:0x133 / me=umh / subme=10 / psy=1 / psy_rd=1.00:0.15 / mixed_ref=1 / me_range=24 / chroma_me=1 / trellis=2 / 8x8dct=1 / cqm=0 / deadzone=21,11 / fast_pskip=1 / chroma_qp_offset=-3 / threads=16 / lookahead_threads=3 / sliced_threads=0 / nr=0 / decimate=1 / interlaced=0 / bluray_compat=0 / constrained_intra=0 / bframes=16 / b_pyramid=2 / b_adapt=2 / b_bias=0 / direct=3 / weightb=1 / open_gop=0 / weightp=2 / keyint=250 / keyint_min=25 / scenecut=40 / intra_refresh=0 / rc_lookahead=60 / rc=2pass / mbtree=1 / bitrate=2065 / ratetol=1.0 / qcomp=0.60 / qpmin=0 / qpmax=69 / qpstep=4 / cplxblur=20.0 / qblur=0.5 / vbv_maxrate=62500 / vbv_bufsize=50000 / nal_hrd=vbr / filler=0 / ip_ratio=1.40 / aq=1:1.00
Default : Да
Forced : Нет
Аудио
Идентификатор : 2
Формат : AC-3
Формат/Информация : Audio Coding 3
Коммерческое название : Dolby Digital
Идентификатор кодека : A_AC3
Продолжительность : 1 ч. 31 м.
Вид битрейта : Постоянный
Битрейт : 224 Кбит/сек
Каналы : 2 канала
Channel layout : L R
Частота : 48,0 КГц
Частота кадров : 31,250 кадров/сек (1536 SPF)
Метод сжатия : С потерями
Размер потока : 146 Мбайт (10%)
Язык : Russian
Service kind : Complete Main
Default : Да
Forced : Нет
Скриншоты:



Профиль  ЛС 
Redmanc

Стаж: 15 лет
Сообщений: 126
Откуда: Октябрьский

Создавать темы Redmanc написал(а)
19-Июн-2024 07:30 (спустя 11 часов)
дамбили бамбасс
Профиль  ЛС 
SHaLkan

Стаж: 15 лет
Сообщений: 23
Откуда: Уфа

Создавать темы SHaLkan написал(а)
20-Июн-2024 13:05 (спустя 1 день 5 часов)
укроботы и сюда добрались
Профиль  ЛС 
Показать сообщения:     

Вы не можете начинать темы
Вы не можете отвечать на сообщения
Вы не можете редактировать свои сообщения
Вы не можете удалять свои сообщения
Вы не можете голосовать в опросах
Вы не можете прикреплять файлы к сообщениям
Вы не можете скачивать файлы

Текущее время: 20-Июл 14:50
Часовой пояс: UTC + 5