Охотники за привидениями: Леденящий ужас / Ghostbusters: Frozen Empire (Гил Кинан) [2024, США, Канада, Великобритания, фантастика, фэнтези, комедия, приключения, WEB-DLRip-AVC] Dub (MovieDalen) + MVO (LostFilm) + Sub Rus + Original Eng

Автор Сообщение
sergoufaVDV ®

Стаж: 8 лет 5 месяцев
Сообщений: 1220
Откуда: Нагаево

Создавать темы sergoufaVDV ® написал(а)
09-Июн-2024 23:11
Охотники за привидениями: Леденящий ужас / Ghostbusters: Frozen Empire
Страна: США, Канада, Великобритания
Жанр: фантастика, фэнтези, комедия, приключения
Год выпуска: 2024
Продолжительность: 01:55:04
Перевод: Профессиональный (полное дублирование) MovieDalen
Перевод 2: Профессиональный (многоголосый, закадровый) LostFilm
Cубтитры:Русские (Форсированные), Английские (Full, SDH)
Оригинальная аудиодорожка: английский
Формат субтитров: softsub (SRT)
Режиссер: Гил Кинан
В ролях: Пол Радд, Кэрри Кун, Финн Вулфхард, Маккенна Грейс, Кумэйл Нанджиани, Пэттон Освальт, Селеста О’Коннор, Логан Ким, Эмили Элин Линд, Джеймс Акастер, Билл Мюррей, Дэн Эйкройд, Эрни Хадсон, Энни Поттс, Уильям Этертон...

Описание: После событий в Оклахоме Спенглеры возвращаются туда, где все началось, — в легендарную пожарную часть Нью-Йорка. Юным охотникам за привидениями, их маме и мистеру Груберсону предстоит объединиться со своими предшественниками, создавшими сверхсекретную исследовательскую лабораторию, благодаря которой борьба с нечистью вышла на новый уровень. Но обнаружив древний артефакт, герои высвобождают новое зло. Нью-Йорк превращается в ледяную империю прямо посреди июля. Охотники за привидениями должны сделать все, чтобы спасти мир от второго ледникового периода.
Качество: WEB-DLRip-AVC
Формат видео: MKV
Видео: AVC, 1144x478p (2.39:1), 2040 kbps, 23.976 fps, 0.156 bit/pixel.
Аудио 1: AC3 Dolby Digital, 2/0 (L,R) ch, 48 kHz, 192 kbps. Дубляж
Аудио 2: AC3 Dolby Digital, 3/2 (L,C,R,l,r) + LFE ch, 48.0 KHz, 448 Kbps. LostFilm
Аудио 3: AC3 Dolby Digital, 3/2 (L,C,R,l,r) + LFE ch, 48.0 KHz, 448 Kbps. Original

MediaInfo

General
Unique ID : 142313475050414536951034911449462179469 (0x6B10940C0DFFEAF0EEFF0362A145868D)
Complete name : Ghostbusters- Frozen Empire (2024).mkv
Format : Matroska
Format version : Version 4
File size : 2.52 GiB
Duration : 1 h 55 min
Overall bit rate : 3 131 kb/s
Frame rate : 23.976 FPS
Movie name : Охотники за привидениями: Леденящий ужас / Ghostbusters: Frozen Empire (2024)
Encoded date : 2024-05-13 04:30:34 UTC
Writing application : mkvmerge v83.0 ('Circle Of Friends') 64-bit
Writing library : libebml v1.4.5 + libmatroska v1.7.1
Cover : Yes
Attachments : cover.jpg
Video
ID : 1
Format : AVC
Format/Info : Advanced Video Codec
Format profile : High@L4.1
Format settings : CABAC / 11 Ref Frames
Format settings, CABAC : Yes
Format settings, Reference : 11 frames
Codec ID : V_MPEG4/ISO/AVC
Duration : 1 h 55 min
Bit rate : 2 041 kb/s
Width : 1 144 pixels
Height : 478 pixels
Display aspect ratio : 2.39:1
Frame rate mode : Constant
Frame rate : 23.976 (24000/1001) FPS
Color space : YUV
Chroma subsampling : 4:2:0
Bit depth : 8 bits
Scan type : Progressive
Bits/(Pixel*Frame) : 0.156
Stream size : 1.64 GiB (65%)
Title : Ghostbusters: Frozen Empire (2024). By optik.1557
Writing library : x264 core 164 r3186 585e019
Encoding settings : cabac=1 / ref=11 / deblock=1:-3:-2 / analyse=0x3:0x113 / me=umh / subme=10 / psy=1 / psy_rd=1.04:0.30 / mixed_ref=1 / me_range=32 / chroma_me=1 / trellis=2 / 8x8dct=1 / cqm=0 / deadzone=21,11 / fast_pskip=0 / chroma_qp_offset=-3 / threads=6 / lookahead_threads=1 / sliced_threads=0 / nr=0 / decimate=0 / interlaced=0 / bluray_compat=0 / constrained_intra=0 / bframes=15 / b_pyramid=2 / b_adapt=2 / b_bias=0 / direct=3 / weightb=1 / open_gop=0 / weightp=2 / keyint=250 / keyint_min=23 / scenecut=40 / intra_refresh=0 / rc_lookahead=60 / rc=crf / mbtree=0 / crf=17.8 / qcomp=0.60 / qpmin=0 / qpmax=69 / qpstep=4 / vbv_maxrate=50000 / vbv_bufsize=62500 / crf_max=0.0 / nal_hrd=none / filler=0 / ip_ratio=1.40 / pb_ratio=1.30 / aq=3:0.85
Language : English
Default : Yes
Forced : No
Color range : Limited
Matrix coefficients : BT.709
Audio #1
ID : 2
Format : AC-3
Format/Info : Audio Coding 3
Commercial name : Dolby Digital
Codec ID : A_AC3
Duration : 1 h 55 min
Bit rate mode : Constant
Bit rate : 192 kb/s
Channel(s) : 2 channels
Channel layout : L R
Sampling rate : 48.0 kHz
Frame rate : 31.250 FPS (1536 SPF)
Compression mode : Lossy
Stream size : 158 MiB (6%)
Title : Дубляж (MovieDalen)
Language : Russian
Service kind : Complete Main
Default : Yes
Forced : No
Audio #2
ID : 3
Format : AC-3
Format/Info : Audio Coding 3
Commercial name : Dolby Digital
Codec ID : A_AC3
Duration : 1 h 55 min
Bit rate mode : Constant
Bit rate : 448 kb/s
Channel(s) : 6 channels
Channel layout : L R C LFE Ls Rs
Sampling rate : 48.0 kHz
Frame rate : 31.250 FPS (1536 SPF)
Compression mode : Lossy
Stream size : 369 MiB (14%)
Title : MVO (LostFilm)
Language : Russian
Service kind : Complete Main
Default : No
Forced : No
AC3_metadata cmixlev : -4.5 dB
surmixlev : -6 dB
Audio #3
ID : 4
Format : AC-3
Format/Info : Audio Coding 3
Commercial name : Dolby Digital
Codec ID : A_AC3
Duration : 1 h 55 min
Bit rate mode : Constant
Bit rate : 448 kb/s
Channel(s) : 6 channels
Channel layout : L R C LFE Ls Rs
Sampling rate : 48.0 kHz
Frame rate : 31.250 FPS (1536 SPF)
Compression mode : Lossy
Stream size : 369 MiB (14%)
Title : Original
Language : English
Service kind : Complete Main
Default : No
Forced : No
AC3_metadata cmixlev : -4.5 dB
surmixlev : -6 dB
Text #1
ID : 5
Format : UTF-8
Codec ID : S_TEXT/UTF8
Codec ID/Info : UTF-8 Plain Text
Duration : 1 h 21 min
Bit rate : 1 b/s
Frame rate : 0.003 FPS
Count of elements : 17
Stream size : 1.14 KiB (0%)
Title : Форсированные
Language : Russian
Default : Yes
Forced : No
Text #2
ID : 6
Format : UTF-8
Codec ID : S_TEXT/UTF8
Codec ID/Info : UTF-8 Plain Text
Duration : 1 h 47 min
Bit rate : 55 b/s
Frame rate : 0.236 FPS
Count of elements : 1523
Stream size : 43.7 KiB (0%)
Title : Full
Language : English
Default : No
Forced : No
Text #3
ID : 7
Format : UTF-8
Codec ID : S_TEXT/UTF8
Codec ID/Info : UTF-8 Plain Text
Duration : 1 h 54 min
Bit rate : 66 b/s
Frame rate : 0.296 FPS
Count of elements : 2030
Stream size : 55.5 KiB (0%)
Title : SDH
Language : English
Default : No
Forced : No
Скриншоты:


Профиль  ЛС 
Показать сообщения:     

Вы не можете начинать темы
Вы не можете отвечать на сообщения
Вы не можете редактировать свои сообщения
Вы не можете удалять свои сообщения
Вы не можете голосовать в опросах
Вы не можете прикреплять файлы к сообщениям
Вы не можете скачивать файлы

Текущее время: 15-Июн 03:18
Часовой пояс: UTC + 5