Сорвать банк / Cash Out (Рэндолл Эмметт) [2024, США, Боевик, HDRip-AVC] Dub (Pride Production) + Sub Rus + Original Eng

Автор Сообщение
sergoufaVDV ®

Стаж: 8 лет 5 месяцев
Сообщений: 1220
Откуда: Нагаево

Создавать темы sergoufaVDV ® написал(а)
09-Июн-2024 22:59
Сорвать банк / Cash Out
Страна: США
Жанр: Боевик
Год выпуска: 2024
Продолжительность: 01:30:11
Перевод: Профессиональный (полное дублирование) Pride Production
Cубтитры: Русские (forced, full), английские (full)
Оригинальная аудиодорожка: английский
Формат субтитров: softsub (SRT)
Режиссер: Рэндолл Эмметт
В ролях: Джон Траволта, Кристин Дэвис, Лукас Хаас, Виктория Брандарт, Деми Кастро, Джоэль Коэн, Луис Да Силва, мл., Джейк Элленц, Мэтт Джералд
Описание: Профессиональный вор Мейсон вместе с братом планирует свое самое крупное дело — ограбление банка. Когда все идет не так, они оказываются запертыми внутри в окружении сотрудников полиции. Пока ситуация накаляется, Мейсон ведет переговоры с ведущим переговорщиком — своей бывшей любовницей.
Качество: HDRip-AVC
Формат видео: MKV
Видео: MPEG-4 AVC, 1024x428 (2,40:1), 24,000 кадра/сек, 2560 Кбит/с
Аудио 1: AC-3, 48,0 КГц, 16 бит, 448 Кбит/с, 6 каналов Pride Production
Аудио 2: AC-3, 48,0 КГц, 16 бит, 448 Кбит/с, 6 каналов Английский

MediaInfo

Общее
Уникальный идентификатор : 231411079713456145971333731256267323180 (0xAE18271D22862BBA69035BFEE52E372C)
Формат : Matroska
Версия формата : Version 4
Размер файла : 2,18 Гбайт
Продолжительность : 1 ч. 30 м.
Общий поток : 3457 Кбит/сек
Дата кодирования : UTC 2024-05-24 16:15:55
Программа кодирования : mkvmerge v79.0 ('Funeral Pyres') 64-bit
Библиотека кодирования : libebml v1.4.4 + libmatroska v1.7.1
Видео
Идентификатор : 1
Формат : AVC
Формат/Информация : Advanced Video Codec
Профиль формата : High@L4.1
Настройки формата : CABAC / 12 Ref Frames
Параметр CABAC формата : Да
Параметр RefFrames формата : 12 кадров
Идентификатор кодека : V_MPEG4/ISO/AVC
Продолжительность : 1 ч. 30 м.
Битрейт : 2560 Кбит/сек
Ширина : 1024 пикселя
Высота : 428 пикселей
Соотношение сторон : 2,40:1
Режим частоты кадров : Постоянный
Частота кадров : 24,000 кадра/сек
Цветовое пространство : YUV
Субдискретизация насыщенности : 4:2:0
Битовая глубина : 8 бит
Тип развёртки : Прогрессивная
Бит/(Пиксели*Кадры) : 0.243
Размер потока : 1,61 Гбайт (74%)
Библиотека кодирования : x264 core 164 r3156+57M NewTeam t_mod_New [(8 & 10)-bit@all X86_64]
Настройки программы : cabac=1 / ref=12 / deblock=1:-3:-2 / analyse=0x3:0x133 / me=umh / subme=10 / psy=1 / fade_compensate=0.00 / psy_rd=1.05:0.10 / mixed_ref=1 / me_range=32 / chroma_me=1 / trellis=2 / 8x8dct=1 / cqm=0 / deadzone=21,11 / fast_pskip=0 / chroma_qp_offset=-3 / threads=13 / lookahead_threads=3 / sliced_threads=0 / nr=0 / decimate=0 / interlaced=0 / bluray_compat=0 / constrained_intra=0 / fgo=0 / bframes=10 / b_pyramid=2 / b_adapt=2 / b_bias=0 / direct=3 / weightb=1 / open_gop=0 / weightp=2 / keyint=240 / keyint_min=23 / scenecut=40 / intra_refresh=0 / rc_lookahead=60 / rc=2pass / mbtree=0 / bitrate=2560 / ratetol=1.0 / qcomp=0.60 / qpmin=0:0:0 / qpmax=69:69:69 / qpstep=5 / cplxblur=20.0 / qblur=0.5 / vbv_maxrate=50000 / vbv_bufsize=62500 / nal_hrd=none / filler=0 / ip_ratio=1.40 / pb_ratio=1.30 / aq=1:1.00 / aq-sensitivity=10.00 / aq-factor=1.00:1.00:1.00 / aq2=0 / aq3=0
Язык : English
Default : Да
Forced : Нет
Аудио #1
Идентификатор : 2
Формат : AC-3
Формат/Информация : Audio Coding 3
Коммерческое название : Dolby Digital
Идентификатор кодека : A_AC3
Продолжительность : 1 ч. 30 м.
Вид битрейта : Постоянный
Битрейт : 448 Кбит/сек
Каналы : 6 каналов
Channel layout : L R C LFE Ls Rs
Частота : 48,0 КГц
Частота кадров : 31,250 кадров/сек (1536 SPF)
Битовая глубина : 16 бит
Метод сжатия : С потерями
Размер потока : 289 Мбайт (13%)
Заголовок : DUB - Pride Production
Язык : Russian
ServiceKind/String : Complete Main
Default : Да
Forced : Нет
Аудио #2
Идентификатор : 3
Формат : AC-3
Формат/Информация : Audio Coding 3
Коммерческое название : Dolby Digital
Идентификатор кодека : A_AC3
Продолжительность : 1 ч. 30 м.
Вид битрейта : Постоянный
Битрейт : 448 Кбит/сек
Каналы : 6 каналов
Channel layout : L R C LFE Ls Rs
Частота : 48,0 КГц
Частота кадров : 31,250 кадров/сек (1536 SPF)
Битовая глубина : 16 бит
Метод сжатия : С потерями
Размер потока : 289 Мбайт (13%)
Заголовок : Original
Язык : English
ServiceKind/String : Complete Main
Default : Нет
Forced : Нет
Текст #1
Идентификатор : 4
Формат : UTF-8
Идентификатор кодека : S_TEXT/UTF8
Идентификатор кодека/Информация : UTF-8 Plain Text
Продолжительность : 1 ч. 24 м.
Битрейт : 1 бит/сек
ElementCount : 24
Размер потока : 784 байт (0%)
Заголовок : [forced]
Язык : Russian
Default : Да
Forced : Нет
Текст #2
Идентификатор : 5
Формат : UTF-8
Идентификатор кодека : S_TEXT/UTF8
Идентификатор кодека/Информация : UTF-8 Plain Text
Продолжительность : 1 ч. 24 м.
Битрейт : 90 бит/сек
ElementCount : 1509
Размер потока : 55,5 Кбайт (0%)
Заголовок : [full]
Язык : Russian
Default : Нет
Forced : Нет
Текст #3
Идентификатор : 6
Формат : UTF-8
Идентификатор кодека : S_TEXT/UTF8
Идентификатор кодека/Информация : UTF-8 Plain Text
Продолжительность : 1 ч. 22 м.
Битрейт : 65 бит/сек
ElementCount : 1384
Размер потока : 39,9 Кбайт (0%)
Заголовок : [full]
Язык : English
Default : Нет
Forced : Нет
Меню
00:00:00.000 : :Chapter 1
00:07:53.541 : :Chapter 2
00:14:24.291 : :Chapter 3
00:21:16.708 : :Chapter 4
00:28:29.541 : :Chapter 5
00:36:39.750 : :Chapter 6
00:42:38.458 : :Chapter 7
00:49:22.083 : :Chapter 8
00:56:31.541 : :Chapter 9
01:02:39.291 : :Chapter 10
01:10:04.208 : :Chapter 11
01:17:03.250 : :Chapter 12
01:25:35.583 : :Chapter 13
01:30:10.250 : :Chapter 14
Скриншоты:


Профиль  ЛС 
Показать сообщения:     

Вы не можете начинать темы
Вы не можете отвечать на сообщения
Вы не можете редактировать свои сообщения
Вы не можете удалять свои сообщения
Вы не можете голосовать в опросах
Вы не можете прикреплять файлы к сообщениям
Вы не можете скачивать файлы

Текущее время: 15-Июн 02:52
Часовой пояс: UTC + 5