Омен. Первое знамение / The First Omen (Аркаша Стивенсон) [2024, США, Италия, Сербия, Канада, ужасы, WEB-DLRip-AVC] Dub (MovieDalen) + Sub Rus + Original Eng

Автор Сообщение
sergoufaVDV ®

Стаж: 8 лет 5 месяцев
Сообщений: 1220
Откуда: Нагаево

Создавать темы sergoufaVDV ® написал(а)
09-Июн-2024 22:49
Омен. Первое знамение / The First Omen
Страна: США, Италия, Сербия, Канада
Жанр: ужасы
Год выпуска: 2024
Продолжительность: 01:59:14
Перевод: Профессиональный (полное дублирование) MovieDalen
Cубтитры: русские (forced, full), английские (forced, full, SDH), испанские, французские
Оригинальная аудиодорожка: английский
Формат субтитров: softsub (SRT)
Режиссер: Аркаша Стивенсон
В ролях: Нелл Тайгер Фри, Ральф Айнесон, Соня Брага, Тауфик Бархом, Мария Кабальеро, Чарльз Дэнс, Билл Найи, Николь Сорас, Иштар Карри-Уилсон, Андреа Арканджели
Описание: Молодая американка отправляется в Рим, чтобы посвятить себя служению церкви. Там она сталкивается с тьмой и заговором, цель которого принести в мир воплощение зла.
Качество: WEB-DLRip-AVC
Формат видео: MKV
raw [info]: 1024x552p 1:1 @ 24/1 fps (cfr)
x264 [info]: using SAR=1/1
x264 [info]: using cpu capabilities: MMX2 SSE2Fast SSSE3 SSE4.2 AVX FMA3 BMI2 AVX2
x264 [info]: profile High, level 4.1, 4:2:0, 8-bit
x264 [info]: frame I:1064 Avg QP:14.27 size: 61227
x264 [info]: frame P:39782 Avg QP:15.91 size: 26116
x264 [info]: frame B:130839 Avg QP:17.52 size: 9095
x264 [info]: consecutive B-frames: 1.5% 3.7% 3.6% 48.5% 11.1% 25.3% 1.5% 1.0% 0.5% 0.2% 1.1% 0.2% 0.4% 0.1% 1.2%
x264 [info]: mb I I16..4: 7.0% 83.4% 9.6%
x264 [info]: mb P I16..4: 0.7% 18.4% 0.8% P16..4: 32.3% 28.3% 13.8% 0.0% 0.0% skip: 5.8%
x264 [info]: mb B I16..4: 0.1% 1.2% 0.1% B16..8: 34.6% 16.2% 3.9% direct: 8.8% skip:35.1% L0:46.3% L1:42.8% BI:10.9%
x264 [info]: 8x8 transform intra:91.2% inter:52.2%
x264 [info]: direct mvs spatial:99.8% temporal:0.2%
x264 [info]: coded y,uvDC,uvAC intra: 93.7% 67.8% 50.0% inter: 32.3% 13.2% 4.8%
x264 [info]: i16 v,h,dc,p: 27% 6% 6% 61%
x264 [info]: i8 v,h,dc,ddl,ddr,vr,hd,vl,hu: 13% 8% 13% 9% 11% 12% 11% 12% 13%
x264 [info]: i4 v,h,dc,ddl,ddr,vr,hd,vl,hu: 15% 7% 3% 9% 15% 15% 13% 11% 11%
x264 [info]: i8c dc,h,v,p: 52% 20% 17% 11%
x264 [info]: Weighted P-Frames: Y:6.7% UV:4.6%
x264 [info]: ref P L0: 45.0% 7.2% 18.4% 6.9% 5.6% 3.8% 3.4% 1.9% 1.7% 1.4% 1.3% 1.2% 1.1% 1.0% 0.1% 0.0%
x264 [info]: ref B L0: 67.0% 12.3% 6.3% 3.4% 2.6% 2.1% 1.9% 1.2% 0.9% 0.8% 0.7% 0.5% 0.3%
x264 [info]: ref B L1: 94.6% 5.4%
x264 [info]: kb/s:2565.49
x264 [total]: encoded 171685 frames, 7.76 fps, 2565.49 kb/s
================================================================
General
Unique ID : 266325348612860619087605780248489483036 (0xC85C657970D0AFAF6897B310D705DB1C)
Complete name : D:\Omen.Pervoe.znamenie.2024.WEB-DLRip.AVC.mkv
Format : Matroska
Format version : Version 4
File size : 2.67 GiB
Duration : 1 h 59 min
Overall bit rate : 3 208 kb/s
Frame rate : 24.000 FPS
Movie name : The First Omen (2024) WEB-DLRip AVC _ vitolinform
Encoded date : 2024-05-28 08:18:47 UTC
Writing application : mkvmerge v83.0 ('Circle Of Friends') 64-bit
Writing library : libebml v1.4.5 + libmatroska v1.7.1
Attachments : poster.jpg / log.log
Video
ID : 1
Format : AVC
Format/Info : Advanced Video Codec
Format profile : High@L4.1
Format settings : CABAC / 14 Ref Frames
Format settings, CABAC : Yes
Format settings, Reference frames : 14 frames
Codec ID : V_MPEG4/ISO/AVC
Duration : 1 h 59 min
Bit rate : 2 565 kb/s
Width : 1 024 pixels
Height : 552 pixels
Display aspect ratio : 1.85:1
Frame rate mode : Constant
Frame rate : 24.000 FPS
Color space : YUV
Chroma subsampling : 4:2:0
Bit depth : 8 bits
Scan type : Progressive
Bits/(Pixel*Frame) : 0.189
Stream size : 2.14 GiB (80%)
Title : Омен. Первое знамение / The First Omen (2024)
Writing library : x264 core 164 r3182 be4f020
Encoding settings : cabac=1 / ref=14 / deblock=1:-3:-3 / analyse=0x3:0x113 / me=umh / subme=10 / psy=1 / psy_rd=1.00:0.05 / mixed_ref=1 / me_range=32 / chroma_me=1 / trellis=2 / 8x8dct=1 / cqm=0 / deadzone=21,11 / fast_pskip=0 / chroma_qp_offset=-3 / threads=12 / lookahead_threads=3 / sliced_threads=0 / nr=0 / decimate=0 / interlaced=0 / bluray_compat=0 / constrained_intra=0 / bframes=14 / b_pyramid=2 / b_adapt=2 / b_bias=0 / direct=3 / weightb=1 / open_gop=0 / weightp=2 / keyint=240 / keyint_min=24 / scenecut=40 / intra_refresh=0 / rc_lookahead=60 / rc=crf / mbtree=0 / crf=18.3 / qcomp=0.60 / qpmin=0 / qpmax=69 / qpstep=4 / vbv_maxrate=50000 / vbv_bufsize=62500 / crf_max=0.0 / nal_hrd=none / filler=0 / ip_ratio=1.40 / pb_ratio=1.30 / aq=1:1.00
Language : English
Default : Yes
Forced : No
Color range : Limited
Color primaries : BT.709
Transfer characteristics : BT.709
Matrix coefficients : BT.709
Audio #1
ID : 2
Format : AC-3
Format/Info : Audio Coding 3
Commercial name : Dolby Digital
Codec ID : A_AC3
Duration : 1 h 59 min
Bit rate mode : Constant
Bit rate : 192 kb/s
Channel(s) : 2 channels
Channel layout : L R
Sampling rate : 48.0 kHz
Frame rate : 31.250 FPS (1536 SPF)
Compression mode : Lossy
Stream size : 164 MiB (6%)
Title : Dub | MovieDalen
Language : Russian
Service kind : Complete Main
Default : Yes
Forced : No
Audio #2
ID : 3
Format : AC-3
Format/Info : Audio Coding 3
Commercial name : Dolby Digital
Codec ID : A_AC3
Duration : 1 h 59 min
Bit rate mode : Constant
Bit rate : 448 kb/s
Channel(s) : 6 channels
Channel layout : L R C LFE Ls Rs
Sampling rate : 48.0 kHz
Frame rate : 31.250 FPS (1536 SPF)
Compression mode : Lossy
Stream size : 382 MiB (14%)
Title : English
Language : English
Service kind : Complete Main
Default : No
Forced : No
Text #1
ID : 4
Format : UTF-8
Codec ID : S_TEXT/UTF8
Codec ID/Info : UTF-8 Plain Text
Duration : 1 h 38 min
Bit rate : 0 b/s
Frame rate : 0.003 FPS
Count of elements : 16
Stream size : 663 Bytes (0%)
Title : Forced
Language : Russian
Default : Yes
Forced : No
Text #2
ID : 5
Format : UTF-8
Codec ID : S_TEXT/UTF8
Codec ID/Info : UTF-8 Plain Text
Duration : 1 h 49 min
Bit rate : 51 b/s
Frame rate : 0.148 FPS
Count of elements : 977
Stream size : 41.5 KiB (0%)
Title : Full | by stirlooo
Language : Russian
Default : No
Forced : No
Text #3
ID : 6
Format : UTF-8
Codec ID : S_TEXT/UTF8
Codec ID/Info : UTF-8 Plain Text
Duration : 1 h 11 min
Bit rate : 0 b/s
Frame rate : 0.001 FPS
Count of elements : 6
Stream size : 128 Bytes (0%)
Title : Forced
Language : English
Default : No
Forced : No
Text #4
ID : 7
Format : UTF-8
Codec ID : S_TEXT/UTF8
Codec ID/Info : UTF-8 Plain Text
Duration : 1 h 49 min
Bit rate : 29 b/s
Frame rate : 0.138 FPS
Count of elements : 912
Stream size : 23.3 KiB (0%)
Title : Full
Language : English
Default : No
Forced : No
Text #5
ID : 8
Format : UTF-8
Codec ID : S_TEXT/UTF8
Codec ID/Info : UTF-8 Plain Text
Duration : 1 h 54 min
Bit rate : 50 b/s
Frame rate : 0.239 FPS
Count of elements : 1636
Stream size : 42.5 KiB (0%)
Title : SDH
Language : English
Default : No
Forced : No
Text #6
ID : 9
Format : UTF-8
Codec ID : S_TEXT/UTF8
Codec ID/Info : UTF-8 Plain Text
Duration : 1 h 49 min
Bit rate : 28 b/s
Frame rate : 0.141 FPS
Count of elements : 927
Stream size : 22.7 KiB (0%)
Title : Full
Language : Spanish
Default : No
Forced : No
Text #7
ID : 10
Format : UTF-8
Codec ID : S_TEXT/UTF8
Codec ID/Info : UTF-8 Plain Text
Duration : 1 h 58 min
Bit rate : 30 b/s
Frame rate : 0.133 FPS
Count of elements : 943
Stream size : 26.2 KiB (0%)
Title : Full
Language : French
Default : No
Forced : No
Menu
00:00:00.000 : en:Chapter 01
00:06:06.500 : en:Chapter 02
00:09:20.125 : en:Chapter 03
00:12:34.291 : en:Chapter 04
00:15:17.666 : en:Chapter 05
00:18:00.958 : en:Chapter 06
00:21:28.041 : en:Chapter 07
00:22:52.083 : en:Chapter 08
00:24:50.416 : en:Chapter 09
00:26:42.833 : en:Chapter 10
00:31:27.708 : en:Chapter 11
00:34:03.958 : en:Chapter 12
00:35:14.250 : en:Chapter 13
00:38:34.291 : en:Chapter 14
00:41:19.416 : en:Chapter 15
00:45:24.875 : en:Chapter 16
00:51:09.750 : en:Chapter 17
00:57:41.083 : en:Chapter 18
01:00:31.083 : en:Chapter 19
01:04:25.000 : en:Chapter 20
01:07:05.708 : en:Chapter 21
01:18:19.833 : en:Chapter 22
01:28:45.708 : en:Chapter 23
01:33:25.166 : en:Chapter 24
01:39:48.916 : en:Chapter 25
01:48:55.000 : en:Chapter 26
01:51:12.875 : en:Chapter 27
Видео: MPEG-4 AVC, 2565 Kbps, 1024x552 (1.85:1), 24.000 fps, 0.189 bit/pixel, High@L4.1
Аудио 1: 48 kHz, AC3 Dolby Digital, 2/0 (L, R) ch, ~192 kbps | Дублированный (MovieDalen)
Аудио 2: 48 kHz, AC3 Dolby Digital, 3/2 (L,C,R,l,r) + LFE ch, ~448 kbps | Английский
Скриншоты:


Профиль  ЛС 
Показать сообщения:     

Вы не можете начинать темы
Вы не можете отвечать на сообщения
Вы не можете редактировать свои сообщения
Вы не можете удалять свои сообщения
Вы не можете голосовать в опросах
Вы не можете прикреплять файлы к сообщениям
Вы не можете скачивать файлы

Текущее время: 15-Июн 02:53
Часовой пояс: UTC + 5