Чистилище (Александр Невзоров) [1997, боевик, драма, военный, DVDRip-AVC]

Автор Сообщение
sergoufaVDV ®

Стаж: 8 лет 5 месяцев
Сообщений: 1220
Откуда: Нагаево

Создавать темы sergoufaVDV ® написал(а)
09-Июн-2024 22:37
Чистилище
Жанр: боевик, драма, военный
Год выпуска: 1997
Продолжительность: 01:54:44
Режиссер: Александр Невзоров
В ролях: Дмитрий Нагиев, Виктор Степанов, Александр Баранов, Вячеслав Бурлачко, Анатолий Федоров, Владимир Рымига, Роман Жилкин, Ирина Веселина, Виктория Матвеева, Сергей Рост (Титивин), Константин Бутаев, Яков Петров, Георгий Антонов
Описание: В центре сюжета этой военной драмы бои за больничный комплекс в Грозном, занятый российскими солдатами во главе с раненым полковником, потерявшим глаз. Между ним и командиром подразделения армии Ичкерии ведется диалог в эфире. Все экранное время занимают интенсивные боевые действия, снятые в полудокументальной, натуралистической манере.

Качество: DVDRip-AVC
Формат видео: MKV
Видео: 714x374 (1.700:1) @ 714x420, 23.976 fps, AVC, ~2 535 Kbps, 0.396 bits/pixel
Аудио: 48 kHz, AC3 Dolby Digital, 2/0 (L,R) ch, ~192 kbps

MediaInfo

x264 [info]: frame I:905 Avg QP:17.94 size: 37737
x264 [info]: frame P:34210 Avg QP:19.99 size: 21131
x264 [info]: frame B:129941 Avg QP:22.30 size: 10960
General
Unique ID : 194609650379366372358036244662347560497 (0x9268748F687ED49CB553CEAFCC92F631)
Complete name : C:\Users\ALEX\Downloads\Фильмы\Чистилище.1997.DVDRip-AVC.x264.AC3.mkv
Format : Matroska
Format version : Version 4 / Version 2
File size : 2.19 GiB
Duration : 1h 54mn
Overall bit rate : 2 728 Kbps
Encoded date : UTC 2016-04-28 17:07:31
Writing application : mkvmerge v8.5.2 ('Crosses') 64bit
Writing library : libebml v1.3.3 + libmatroska v1.4.4
Video
ID : 1
Format : AVC
Format/Info : Advanced Video Codec
Format profile : High@L4.1
Format settings, CABAC : Yes
Format settings, ReFrames : 16 frames
Codec ID : V_MPEG4/ISO/AVC
Duration : 1h 54mn
Bit rate : 2 535 Kbps
Width : 714 pixels
Height : 374 pixels
Display aspect ratio : 1.700
Frame rate mode : Constant
Frame rate : 23.976 (24000/1001) fps
Color space : YUV
Chroma subsampling : 4:2:0
Bit depth : 8 bits
Scan type : Progressive
Bits/(Pixel*Frame) : 0.396
Stream size : 2.03 GiB (93%)
Title : Чистилище
Writing library : x264 core 148 r2638 7599210
Encoding settings : cabac=1 / ref=16 / deblock=1:-2:-2 / analyse=0x3:0x113 / me=umh / subme=11 / psy=1 / psy_rd=1.00:0.10 / mixed_ref=1 / me_range=32 / chroma_me=1 / trellis=2 / 8x8dct=1 / cqm=0 / deadzone=21,11 / fast_pskip=0 / chroma_qp_offset=-3 / threads=6 / lookahead_threads=1 / sliced_threads=0 / nr=0 / decimate=1 / interlaced=0 / bluray_compat=0 / constrained_intra=0 / bframes=10 / b_pyramid=2 / b_adapt=2 / b_bias=0 / direct=3 / weightb=1 / open_gop=0 / weightp=2 / keyint=240 / keyint_min=23 / scenecut=40 / intra_refresh=0 / rc=2pass / mbtree=0 / bitrate=2535 / ratetol=1.0 / qcomp=0.60 / qpmin=0 / qpmax=69 / qpstep=4 / cplxblur=20.0 / qblur=0.5 / ip_ratio=1.40 / pb_ratio=1.30 / aq=1:1.00
Language : Russian
Default : Yes
Forced : No
Audio
ID : 2
Format : AC-3
Format/Info : Audio Coding 3
Mode extension : CM (complete main)
Format settings, Endianness : Big
Codec ID : A_AC3
Duration : 1h 54mn
Bit rate mode : Constant
Bit rate : 192 Kbps
Channel(s) : 2 channels
Channel positions : Front: L R
Sampling rate : 48.0 KHz
Frame rate : 31.250 fps (1536 spf)
Compression mode : Lossy
Stream size : 158 MiB (7%)
Title : Original
Language : Russian
Default : Yes
Forced : No
Скриншоты:


Профиль  ЛС 
Показать сообщения:     

Вы не можете начинать темы
Вы не можете отвечать на сообщения
Вы не можете редактировать свои сообщения
Вы не можете удалять свои сообщения
Вы не можете голосовать в опросах
Вы не можете прикреплять файлы к сообщениям
Вы не можете скачивать файлы

Текущее время: 15-Июн 02:54
Часовой пояс: UTC + 5