Падение империи / Civil War (Алекс Гарленд) [2024, США, Великобритания, боевик, драма, WEB-DLRip-AVC] Dub (HDRezka Studio) + Original Eng

Автор Сообщение
sergoufaVDV ®

Стаж: 8 лет 5 месяцев
Сообщений: 1220
Откуда: Нагаево

Создавать темы sergoufaVDV ® написал(а)
31-Май-2024 07:08
Падение империи / Civil War
Страна: США, Великобритания
Жанр: боевик, драма
Год выпуска: 2024
Продолжительность: 01:48:45
Перевод: Любительский (дублированный) HDRezka Studio
Cубтитры: английские (forced, full, SDH), русские (2x full | Cool Story Blog, Un Chat Andalou)
Формат субтитров: softsub (SRT)
Оригинальная аудиодорожка: английский
Режиссер: Алекс Гарленд
В ролях: Кирстен Данст, Вагнер Моура, Кэйли Спэни, Стивен Хендерсон, Соноя Мидзуно, Ник Офферман, Джефферсон Уайт, Хуани Фелиз, Нельсон Ли, Эдмунд Донован
Описание: Национальная гвардия Калифорнии и Техаса при поддержке боевой техники и авиации штурмуют столицу. Белый дом вот-вот падет. Группа журналистов пытается добраться до пылающего Вашингтона, чтобы взять последнее интервью у президента некогда Соединенных Штатов Америки. Но в стране, где царит хаос, нет ничего дороже литра бензина и ничего дешевле, чем человеческая жизнь.
Качество: WEB-DLRip-AVC
Формат видео: MKV
Видео: MPEG-4 AVC, 1835 Kbps, 1024x554 (1.85:1), 23.976 fps, 0.135 bit/pixel, High@L4.1
Аудио 1: 48 kHz, AC3 Dolby Digital, 2/0 (L, R) ch, ~192 kbps | HDRezka Studio
Аудио 2: 48 kHz, AC3 Dolby Digital, 3/2 (L,C,R,l,r) + LFE ch, ~448 kbps | Английский
raw [info]: 1024x554p 1:1 @ 24000/1001 fps (cfr)
x264 [info]: using SAR=1/1
x264 [info]: using cpu capabilities: MMX2 SSE2Fast SSSE3 SSE4.2 AVX FMA3 BMI2 AVX2
x264 [info]: profile High, level 4.1, 4:2:0, 8-bit
x264 [info]: frame I:1353 Avg QP:15.42 size: 66395
x264 [info]: frame P:37942 Avg QP:17.94 size: 20567
x264 [info]: frame B:117154 Avg QP:19.84 size: 5346
x264 [info]: consecutive B-frames: 3.1% 3.2% 8.0% 41.7% 13.2% 19.5% 4.3% 4.2% 1.0% 0.6% 0.5% 0.8%
x264 [info]: mb I I16..4: 10.0% 71.0% 19.0%
x264 [info]: mb P I16..4: 1.5% 8.9% 1.2% P16..4: 38.3% 24.4% 13.0% 0.0% 0.0% skip:12.7%
x264 [info]: mb B I16..4: 0.1% 0.8% 0.1% B16..8: 35.6% 9.8% 2.5% direct: 3.9% skip:47.2% L0:41.9% L1:46.9% BI:11.2%
x264 [info]: 8x8 transform intra:75.4% inter:60.0%
x264 [info]: direct mvs spatial:99.9% temporal:0.1%
x264 [info]: coded y,uvDC,uvAC intra: 80.0% 81.0% 61.7% inter: 15.9% 16.6% 8.6%
x264 [info]: i16 v,h,dc,p: 29% 15% 6% 49%
x264 [info]: i8 v,h,dc,ddl,ddr,vr,hd,vl,hu: 12% 12% 10% 8% 11% 11% 12% 11% 13%
x264 [info]: i4 v,h,dc,ddl,ddr,vr,hd,vl,hu: 13% 11% 5% 9% 14% 13% 13% 10% 12%
x264 [info]: i8c dc,h,v,p: 43% 23% 17% 16%
x264 [info]: Weighted P-Frames: Y:4.3% UV:2.5%
x264 [info]: ref P L0: 52.2% 10.3% 15.5% 5.4% 4.3% 2.9% 2.7% 1.4% 1.4% 1.1% 1.1% 0.9% 1.0% 0.1% 0.0%
x264 [info]: ref B L0: 73.4% 11.6% 5.3% 2.6% 1.8% 1.5% 1.2% 0.8% 0.7% 0.6% 0.4% 0.2%
x264 [info]: ref B L1: 93.8% 6.2%
x264 [info]: kb/s:1834.73
x264 [total]: encoded 156449 frames, 10.83 fps, 1834.73 kb/s
================================================================================
General
Unique ID : 318830334840626898683640482075958548684 (0xEFDC7D28DE64ADE4C817814CF58F98CC)
Complete name : D:\Padenie.imperii.2024.AMZN.WEB-DLRip.AVC.mkv
Format : Matroska
Format version : Version 4
File size : 1.88 GiB
Duration : 1 h 48 min
Overall bit rate : 2 477 kb/s
Frame rate : 23.976 FPS
Movie name : Civil War (2024) WEB-DLRip AVC _ vitolinform
Encoded date : 2024-05-27 02:27:36 UTC
Writing application : mkvmerge v83.0 ('Circle Of Friends') 64-bit
Writing library : libebml v1.4.5 + libmatroska v1.7.1
Attachments : poster.jpg / log.log
Video
ID : 1
Format : AVC
Format/Info : Advanced Video Codec
Format profile : High@L4.1
Format settings : CABAC / 13 Ref Frames
Format settings, CABAC : Yes
Format settings, Reference frames : 13 frames
Codec ID : V_MPEG4/ISO/AVC
Duration : 1 h 48 min
Bit rate : 1 835 kb/s
Width : 1 024 pixels
Height : 554 pixels
Display aspect ratio : 1.85:1
Frame rate mode : Constant
Frame rate : 23.976 (24000/1001) FPS
Color space : YUV
Chroma subsampling : 4:2:0
Bit depth : 8 bits
Scan type : Progressive
Bits/(Pixel*Frame) : 0.135
Stream size : 1.39 GiB (74%)
Title : Падение империи / Civil War (2024)
Writing library : x264 core 164 r3182 be4f020
Encoding settings : cabac=1 / ref=13 / deblock=1:-3:-3 / analyse=0x3:0x113 / me=umh / subme=10 / psy=1 / psy_rd=1.00:0.05 / mixed_ref=1 / me_range=32 / chroma_me=1 / trellis=2 / 8x8dct=1 / cqm=0 / deadzone=21,11 / fast_pskip=0 / chroma_qp_offset=-3 / threads=12 / lookahead_threads=3 / sliced_threads=0 / nr=0 / decimate=0 / interlaced=0 / bluray_compat=0 / constrained_intra=0 / bframes=11 / b_pyramid=2 / b_adapt=2 / b_bias=0 / direct=3 / weightb=1 / open_gop=0 / weightp=2 / keyint=240 / keyint_min=24 / scenecut=40 / intra_refresh=0 / rc_lookahead=60 / rc=crf / mbtree=0 / crf=18.7 / qcomp=0.60 / qpmin=0 / qpmax=69 / qpstep=4 / vbv_maxrate=50000 / vbv_bufsize=62500 / crf_max=0.0 / nal_hrd=none / filler=0 / ip_ratio=1.40 / pb_ratio=1.30 / aq=1:1.00
Language : English
Default : Yes
Forced : No
Color range : Limited
Color primaries : BT.709
Transfer characteristics : BT.709
Matrix coefficients : BT.709
Audio #1
ID : 2
Format : AC-3
Format/Info : Audio Coding 3
Commercial name : Dolby Digital
Codec ID : A_AC3
Duration : 1 h 48 min
Bit rate mode : Constant
Bit rate : 192 kb/s
Channel(s) : 2 channels
Channel layout : L R
Sampling rate : 48.0 kHz
Frame rate : 31.250 FPS (1536 SPF)
Compression mode : Lossy
Stream size : 149 MiB (8%)
Title : DUB | HDRezka Studio
Language : Russian
Service kind : Complete Main
Default : Yes
Forced : No
Audio #2
ID : 3
Format : AC-3
Format/Info : Audio Coding 3
Commercial name : Dolby Digital
Codec ID : A_AC3
Duration : 1 h 48 min
Bit rate mode : Constant
Bit rate : 448 kb/s
Channel(s) : 6 channels
Channel layout : L R C LFE Ls Rs
Sampling rate : 48.0 kHz
Frame rate : 31.250 FPS (1536 SPF)
Compression mode : Lossy
Stream size : 348 MiB (18%)
Title : English
Language : English
Service kind : Complete Main
Default : No
Forced : No
Text #1
ID : 4
Format : UTF-8
Codec ID : S_TEXT/UTF8
Codec ID/Info : UTF-8 Plain Text
Duration : 1 h 43 min
Bit rate : 1 b/s
Frame rate : 0.003 FPS
Count of elements : 16
Stream size : 846 Bytes (0%)
Title : Forced
Language : Russian
Default : Yes
Forced : No
Text #2
ID : 5
Format : UTF-8
Codec ID : S_TEXT/UTF8
Codec ID/Info : UTF-8 Plain Text
Duration : 1 h 43 min
Bit rate : 58 b/s
Frame rate : 0.161 FPS
Count of elements : 1000
Stream size : 44.1 KiB (0%)
Title : Full | 18+ | Cool Story Blog
Language : Russian
Default : No
Forced : No
Text #3
ID : 6
Format : UTF-8
Codec ID : S_TEXT/UTF8
Codec ID/Info : UTF-8 Plain Text
Duration : 1 h 40 min
Bit rate : 58 b/s
Frame rate : 0.168 FPS
Count of elements : 1014
Stream size : 42.9 KiB (0%)
Title : Full | 18+ | Un Chat Andalou
Language : Russian
Default : No
Forced : No
Text #4
ID : 7
Format : UTF-8
Codec ID : S_TEXT/UTF8
Codec ID/Info : UTF-8 Plain Text
Duration : 1 h 39 min
Bit rate : 34 b/s
Frame rate : 0.165 FPS
Count of elements : 989
Stream size : 25.4 KiB (0%)
Title : Full
Language : English
Default : No
Forced : No
Text #5
ID : 8
Format : UTF-8
Codec ID : S_TEXT/UTF8
Codec ID/Info : UTF-8 Plain Text
Duration : 1 h 40 min
Bit rate : 39 b/s
Frame rate : 0.189 FPS
Count of elements : 1139
Stream size : 28.6 KiB (0%)
Title : SDH
Language : English
Default : No
Forced : No
Menu
00:00:00.000 : en:Chapter 01
00:14:27.409 : en:Chapter 02
00:19:16.281 : en:Chapter 03
00:28:41.304 : en:Chapter 04
00:44:34.341 : en:Chapter 05
00:56:47.866 : en:Chapter 06
01:12:51.329 : en:Chapter 07
01:22:38.249 : en:Chapter 08
01:33:07.921 : en:Chapter 09
01:41:07.150 : en:Chapter 10
Скриншоты:



Профиль  ЛС 
Показать сообщения:     

Вы не можете начинать темы
Вы не можете отвечать на сообщения
Вы не можете редактировать свои сообщения
Вы не можете удалять свои сообщения
Вы не можете голосовать в опросах
Вы не можете прикреплять файлы к сообщениям
Вы не можете скачивать файлы

Текущее время: 15-Июн 02:57
Часовой пояс: UTC + 5