Планета обезьян: Новое царство / Kingdom of the Planet of the Apes (Уэс Болл) [2024, США, Австралия, фантастика, боевик, приключения, WEBRip-AVC] Dub (MovieDalen)

Автор Сообщение
sergoufaVDV ®

Стаж: 8 лет 5 месяцев
Сообщений: 1220
Откуда: Нагаево

Создавать темы sergoufaVDV ® написал(а)
26-Май-2024 15:49
Планета обезьян: Новое царство / Kingdom of the Planet of the Apes
Страна: США, Австралия
Жанр: фантастика, боевик, приключения
Год выпуска: 2024
Продолжительность: 02:24:35
Перевод: Профессиональный (полное дублирование) MovieDalen
Cубтитры: нет
Режиссер: Уэс Болл
В ролях: Оуэн Тиг, Питер Макон, Фрейя Аллан, Кевин Дюран, Трэвис Джеффри, Уильям Х. Мэйси, Дичен Лакмэн, Ика Дэрвилл, Лидия Пекхэм, Нил Сэндилэндс

Описание: Несколько поколений после правления Цезаря. Обезьяны являются доминирующим видом, живущим в гармонии, а люди вынуждены оставаться в тени. Пока новый тиранический лидер обезьян строит свою империю, один молодой шимпанзе отправляется в путешествие, которое заставит его усомниться во всём, что он знал о прошлом, и сделать выбор, который определит будущее как обезьян, так и людей.

Качество: WEBRip-AVC
Формат видео: MKV
Видео: 1072x448 (2.40:1), 24.000 fps, AVC, ~1705 Kbps, 0.148 bits/pixel
Аудио: Russian, 48.0 KHz, AC3, 6 ch, 448 Kbps

MediaInfo

Формат                                   : Matroska
Версия формата : Version 4
Размер файла : 2,18 Гбайт
Продолжительность : 2 ч. 24 мин.
Режим общего битрейта : Переменный
Общий битрейт : 2 155 Кбит/сек
Частота кадров : 24,000 кадра/сек
Название фильма : Kingdom of the Planet of the Apes | Rip by порошков
Дата кодирования : 2024-05-24 15:08:17 UTC
Программа кодирования : mkvmerge v84.0 ('Sleeper') 64-bit
Библиотека кодирования : libebml v1.4.5 + libmatroska v1.7.1
Видео
Идентификатор : 1
Формат : AVC
Формат/Информация : Advanced Video Codec
Профиль формата : High@L4.1
Настройки формата : CABAC / 16 Ref Frames
Параметр CABAC формата : Да
Параметр RefFrames формата : 16 кадров
Идентификатор кодека : V_MPEG4/ISO/AVC
Продолжительность : 2 ч. 24 мин.
Вид битрейта : Переменный
Битрейт : 1 705 Кбит/сек
Максимальный битрейт : 62,5 Мбит/сек
Ширина : 1 072 пикселя
Высота : 448 пикселей
Соотношение сторон дисплея : 2,39:1
Режим частоты кадров : Постоянный
Частота кадров : 24,000 кадра/сек
Цветовое пространство : YUV
Цветовая субдискретизация : 4:2:0
Битовая глубина : 8 бит
Тип развёртки : Прогрессивная
Бит/(Пиксели*Кадры) : 0.148
Размер потока : 1,72 Гбайт (79%)
Библиотека кодирования : x264 core 164 r3164 c196240
Параметры библиотеки кодирования : cabac=1 / ref=16 / deblock=1:-1:-1 / analyse=0x3:0x133 / me=umh / subme=10 / psy=1 / psy_rd=1.00:0.15 / mixed_ref=1 / me_range=24 / chroma_me=1 / trellis=2 / 8x8dct=1 / cqm=0 / deadzone=21,11 / fast_pskip=1 / chroma_qp_offset=-3 / threads=16 / lookahead_threads=3 / sliced_threads=0 / nr=0 / decimate=1 / interlaced=0 / bluray_compat=0 / constrained_intra=0 / bframes=16 / b_pyramid=2 / b_adapt=2 / b_bias=0 / direct=3 / weightb=1 / open_gop=0 / weightp=2 / keyint=240 / keyint_min=24 / scenecut=40 / intra_refresh=0 / rc_lookahead=60 / rc=2pass / mbtree=1 / bitrate=1705 / ratetol=1.0 / qcomp=0.60 / qpmin=0 / qpmax=69 / qpstep=4 / cplxblur=20.0 / qblur=0.5 / vbv_maxrate=62500 / vbv_bufsize=50000 / nal_hrd=vbr / filler=0 / ip_ratio=1.40 / aq=1:1.00
По умолчанию : Да
Принудительно : Нет
Аудио
Идентификатор : 2
Формат : AC-3
Формат/Информация : Audio Coding 3
Коммерческое название : Dolby Digital
Идентификатор кодека : A_AC3
Продолжительность : 2 ч. 24 мин.
Вид битрейта : Постоянный
Битрейт : 448 Кбит/сек
Канал(-ы) : 6 каналов
Расположение каналов : L R C LFE Ls Rs
Частота дискретизации : 48,0 КГц
Частота кадров : 31,250 кадров/сек (1536 SPF)
Метод сжатия : С потерями
Размер потока : 463 Мбайт (21%)
Язык : Русский
Вид сервиса : Complete Main
По умолчанию : Да
Принудительно : Нет
Нормализация звука речи : -31 dB
cmixlev : -4.5 dB
surmixlev : -6 dB
dialnorm_Average : -31 dB
dialnorm_Minimum : -31 dB
dialnorm_Maximum : -31 dB
Скриншоты:


Профиль  ЛС 
САМСА

Стаж: 14 лет
Сообщений: 34
Откуда: Уфа

Создавать темы САМСА написал(а)
28-Май-2024 23:04 (спустя 2 дня 7 часов)
Экранка. К просмотру не советую. Ждём качество.
Профиль  ЛС 
sergoufaVDV ®

Стаж: 8 лет 5 месяцев
Сообщений: 1220
Откуда: Нагаево

Создавать темы sergoufaVDV ® написал(а)
29-Май-2024 12:34 (спустя 13 часов)
5370846Экранка. К просмотру не советую. Ждём качество.
...жаль что вы не видите отличие экранки от WEBRip-AVC
Профиль  ЛС 
САМСА

Стаж: 14 лет
Сообщений: 34
Откуда: Уфа

Создавать темы САМСА написал(а)
29-Май-2024 22:29 (спустя 9 часов)
5370849
5370846Экранка. К просмотру не советую. Ждём качество.
...жаль что вы не видите отличие экранки от WEBRip-AVC
Прошу прощения, вношу поправку:
WEBRip-AVC. По качеству - как полное "экранка". К просмотру не советую.
Профиль  ЛС 
Ruzon1988

Стаж: 4 года 4 месяца
Сообщений: 5

Создавать темы Ruzon1988 написал(а)
03-Июн-2024 11:47 (спустя 4 дня)
5370851
5370849
5370846Экранка. К просмотру не советую. Ждём качество.
...жаль что вы не видите отличие экранки от WEBRip-AVC
Прошу прощения, вношу поправку:
WEBRip-AVC. По качеству - как полное "экранка". К просмотру не советую.
Согласен, скачал и удалил сразу же. Картинка размытая, смотреть не возможно!
Профиль  ЛС 
Ruzon1988

Стаж: 4 года 4 месяца
Сообщений: 5

Создавать темы Ruzon1988 написал(а)
03-Июн-2024 11:47 (спустя 5 секунд)
5370851
5370849
5370846Экранка. К просмотру не советую. Ждём качество.
...жаль что вы не видите отличие экранки от WEBRip-AVC
Прошу прощения, вношу поправку:
WEBRip-AVC. По качеству - как полное "экранка". К просмотру не советую.
Согласен, скачал и удалил сразу же. Картинка размытая, смотреть не возможно!
Профиль  ЛС 
Показать сообщения:     

Вы не можете начинать темы
Вы не можете отвечать на сообщения
Вы не можете редактировать свои сообщения
Вы не можете удалять свои сообщения
Вы не можете голосовать в опросах
Вы не можете прикреплять файлы к сообщениям
Вы не можете скачивать файлы

Текущее время: 15-Июн 02:58
Часовой пояс: UTC + 5