Свидетель (Давид Дадунашвили) [2023, Драма, IPTV]

Автор Сообщение
sergoufaVDV ®

Стаж: 8 лет 3 месяца
Сообщений: 1187
Откуда: Нагаево

Создавать темы sergoufaVDV ® написал(а)
17-Мар-2024 11:37
Свидетель
Жанр: Драма
Год выпуска: 2023
Продолжительность: 02:04:06
Субтитры: Русские - т/к НТВ (SDH)
Режиссер: Давид Дадунашвили
В ролях: Карэн Бадалов, Юлия Афанасьева, Александр Дьяченко, Олег Комаров, Серафима Низовская, Дмитрий Блохин, Виктор Раков, Иса Новиков, Марк Румянцев, Василий Мичков
Описание: Даниэль Коэн, скрипач-виртуоз из Бельгии, считает себя гражданином мира, верит в добро и справедливость. В конце февраля 2022 г. он приезжает на гастроли в Киев, и эта поездка навсегда меняет его жизнь. События специальной военной операции приводят музыканта в украинский поселок Семидвери, где он становится свидетелем бесчеловечных преступлений и кровавых провокаций. Теперь его главная цель не просто выжить, а донести правду до всего мира. Ведь правда сильнее страха.

Качество: IPTV
Формат видео: MKV
Видео: AVC/H.264, 720 (1047) x 576 (16:9), 25,000 кадров/сек, 1524 Kbps
Аудио: Russian (AAC, 2 ch, 192 kbps, 48.0 KHz)

MediaInfo

Общее
Уникальный идентификатор : 301731957712030772238406075694868413862 (0xE2FF7614B795DB6122039CB7C0053DA6)
Полное имя : D:\Torrent\Свидетель.2023_Nataleksa.mkv
Формат : Matroska
Версия формата : Version 4 / Version 2
Размер файла : 1,49 Гбайт
Продолжительность : 2 ч. 4 м.
Общий поток : 1716 Кбит/сек
Дата кодирования : UTC 2024-02-28 21:39:23
Программа кодирования : mkvmerge v51.0.0 ('I Wish') 64-bit
Библиотека кодирования : libebml v1.4.0 + libmatroska v1.6.2
Видео
Идентификатор : 1
Формат : AVC
Формат/Информация : Advanced Video Codec
Профиль формата : High@L3
Настройки формата : CABAC / 4 Ref Frames
Параметр CABAC формата : Да
Параметр RefFrames формата : 4 кадра
Идентификатор кодека : V_MPEG4/ISO/AVC
Продолжительность : 2 ч. 4 м.
Вид битрейта : Постоянный
Битрейт : 1524 Кбит/сек
Номинальный битрейт : 1800 Кбит/сек / 1829 Кбит/сек
Ширина : 720 пикселей
Высота : 576 пикселей
Соотношение сторон : 16:9
Режим частоты кадров : Постоянный
Частота кадров : 25,000 кадров/сек
Стандарт вещания : PAL
Цветовое пространство : YUV
Субдискретизация насыщенности : 4:2:0
Битовая глубина : 8 бит
Тип развёртки : Прогрессивная
Бит/(Пиксели*Кадры) : 0.147
Размер потока : 1,32 Гбайт (89%)
Библиотека кодирования : x264 core 160 r3000
Настройки программы : cabac=1 / ref=4 / deblock=1:0:0 / analyse=0x3:0x113 / me=hex / subme=4 / psy=1 / psy_rd=1.00:0.00 / mixed_ref=0 / me_range=16 / chroma_me=1 / trellis=1 / 8x8dct=1 / cqm=0 / deadzone=21,11 / fast_pskip=1 / chroma_qp_offset=-1 / threads=6 / lookahead_threads=1 / sliced_threads=0 / nr=0 / decimate=1 / interlaced=0 / bluray_compat=0 / constrained_intra=0 / bframes=3 / b_pyramid=2 / b_adapt=1 / b_bias=0 / direct=1 / weightb=1 / open_gop=0 / weightp=1 / keyint=25 / keyint_min=2 / scenecut=0 / intra_refresh=0 / rc_lookahead=20 / rc=cbr / mbtree=1 / bitrate=1829 / ratetol=1.0 / qcomp=0.60 / qpmin=0 / qpmax=69 / qpstep=4 / vbv_maxrate=1829 / vbv_bufsize=810 / nal_hrd=none / filler=0 / ip_ratio=1.40 / aq=1:1.00
Default : Да
Forced : Нет
Аудио
Идентификатор : 2
Формат : AAC
Формат/Информация : Advanced Audio Codec
Профиль формата : LC
Идентификатор кодека : A_AAC-2
Продолжительность : 2 ч. 4 м.
Битрейт : 192 Кбит/сек
Каналы : 2 канала
Расположение каналов : Front: L R
Частота : 48,0 КГц
Частота кадров : 46,875 кадров/сек (1024 SPF)
Метод сжатия : С потерями
Размер потока : 168 Мбайт (11%)
Язык : Russian
Default : Да
Forced : Нет
Текст
Идентификатор : 3
Формат : UTF-8
Идентификатор кодека : S_TEXT/UTF8
Идентификатор кодека/Информация : UTF-8 Plain Text
Продолжительность : 2 ч. 3 м.
Битрейт : 62 бит/сек
ElementCount : 1221
Размер потока : 56,5 Кбайт (0%)
Язык : Russian
Default : Да
Forced : Нет
Скриншоты:


Профиль  ЛС 
Показать сообщения:     

Вы не можете начинать темы
Вы не можете отвечать на сообщения
Вы не можете редактировать свои сообщения
Вы не можете удалять свои сообщения
Вы не можете голосовать в опросах
Вы не можете прикреплять файлы к сообщениям
Вы не можете скачивать файлы

Текущее время: 17-Апр 23:30
Часовой пояс: UTC + 5