Неестественный отбор (Татьяна Ярмак) [2023, триллер, криминал, WEB-DLRip-AVC]

Автор Сообщение
sergoufaVDV ®

Стаж: 8 лет 1 месяц
Сообщений: 1172
Откуда: Нагаево

Создавать темы sergoufaVDV ® написал(а)
19-Дек-2023 20:39
Неестественный отбор
Жанр: триллер, криминал
Год выпуска: 2023
Продолжительность: 01:32:26
Режиссер: Татьяна Ярмак
В ролях: Михаил Пореченков, Сергей Юшкевич, Евгений Михеев, Илья Антоненко, Алексия Белавина, Диана Милютина, Полина Северная, Сергей Мухин, Александр Танхилевич, Анна Афанасьева

Описание: В провинциальном городе существует фонд, поддерживающий бездомных инвалидов, людей с ограниченными физическими возможностями и бедняков. Однако владельцы фонда имеют с благотворительности свою выгоду, управляя местными жителями и их судьбами. Инвалид Егор Колчак, только что потерявший мать, решает противостоять меценатам и положить конец их своеволию.

Доп. информация: Возраст 18+
Качество: WEB-DLRip-AVC
Формат видео: MKV
Видео: AVC/H.264, 1024x424, 25.000 fps, ~2063 Kbps
Аудио: AAC, 2 ch, 48 kHz, 192 Kbps - русский

MediaInfo

Общее
Уникальный идентификатор : 135127488193845349398387158041067474289 (0x65A89B8A826902E8362B1475F85B4D71)
Полное имя : Неестественный отбор [2023].mkv
Формат : Matroska
Версия формата : Version 4
Размер файла : 1,46 Гбайт
Продолжительность : 1 ч. 32 м.
Общий поток : 2 261 Кбит/сек
Частота кадров : 25,000 кадров/сек
Дата кодирования : 2023-12-19 08:11:38 UTC
Программа кодирования : mkvmerge v50.0.0 ('Awakenings') 64-bit
Библиотека кодирования : libebml v1.4.0 + libmatroska v1.6.2
Обложка : Yes
Attachments : Cover.jpg
Видео
Идентификатор : 1
Формат : AVC
Формат/Информация : Advanced Video Codec
Профиль формата : High@L4.1
Настройки формата : CABAC / 16 Ref Frames
Параметр CABAC формата : Да
Параметр RefFrames формата : 16 кадров
Идентификатор кодека : V_MPEG4/ISO/AVC
Продолжительность : 1 ч. 32 м.
Битрейт : 2 063 Кбит/сек
Ширина : 1 024 пикселя
Высота : 424 пикселя
Соотношение сторон : 2,40:1
Режим частоты кадров : Постоянный
Частота кадров : 25,000 кадров/сек
Цветовое пространство : YUV
Субдискретизация насыщенности : 4:2:0
Битовая глубина : 8 бит
Тип развёртки : Прогрессивная
Бит/(Пиксели*Кадры) : 0.190
Размер потока : 1,33 Гбайт (91%)
Заголовок : Rip by il68k {Avidemux}
Библиотека кодирования : x264 core 164 r3081 19856cc
Настройки программы : cabac=1 / ref=16 / deblock=1:-3:-3 / analyse=0x3:0x133 / me=umh / subme=11 / psy=1 / psy_rd=1.00:0.00 / mixed_ref=1 / me_range=48 / chroma_me=1 / trellis=2 / 8x8dct=1 / cqm=0 / deadzone=21,11 / fast_pskip=1 / chroma_qp_offset=-2 / threads=3 / lookahead_threads=1 / sliced_threads=0 / nr=0 / decimate=1 / interlaced=0 / bluray_compat=0 / constrained_intra=0 / bframes=16 / b_pyramid=2 / b_adapt=1 / b_bias=0 / direct=1 / weightb=1 / open_gop=0 / weightp=2 / keyint=250 / keyint_min=24 / scenecut=0 / intra_refresh=0 / rc=2pass / mbtree=0 / bitrate=2063 / ratetol=0.6 / qcomp=0.60 / qpmin=1 / qpmax=69 / qpstep=6 / cplxblur=20.0 / qblur=0.5 / ip_ratio=1.40 / pb_ratio=1.30 / aq=1:1.00
Язык : Russian
Default : Да
Forced : Нет
Цветовой диапазон : Limited
Основные цвета : BT.709
Характеристики трансфера : BT.709
Коэффициенты матрицы : BT.709
Аудио
Идентификатор : 2
Формат : AAC LC
Формат/Информация : Advanced Audio Codec Low Complexity
Идентификатор кодека : A_AAC-2
Продолжительность : 1 ч. 32 м.
Битрейт : 192 Кбит/сек
Каналы : 2 канала
Channel layout : L R
Частота : 48,0 КГц
Частота кадров : 46,875 кадров/сек (1024 SPF)
Метод сжатия : С потерями
Размер потока : 129 Мбайт (9%)
Заголовок : Original
Язык : Russian
Default : Да
Forced : Нет
Скриншоты:



Профиль  ЛС 
Показать сообщения:     

Вы не можете начинать темы
Вы не можете отвечать на сообщения
Вы не можете редактировать свои сообщения
Вы не можете удалять свои сообщения
Вы не можете голосовать в опросах
Вы не можете прикреплять файлы к сообщениям
Вы не можете скачивать файлы

Текущее время: 01-Мар 02:23
Часовой пояс: UTC + 5