Семейный план / The Family Plan (Саймон Селлан Джоунс) [2023, США, боевик, комедия, WEB-DLRip-AVC] MVO (NewComers) + Sub Rus

Автор Сообщение
sergoufaVDV ®

Стаж: 8 лет 1 месяц
Сообщений: 1172
Откуда: Нагаево

Создавать темы sergoufaVDV ® написал(а)
18-Дек-2023 22:34
Семейный план / The Family Plan
Страна: США
Жанр: боевик, комедия
Год выпуска: 2023
Продолжительность: 01:58:44
Перевод: Профессиональный (многоголосый, закадровый) NewComers
Cубтитры: русские, английские
Режиссер: Саймон Селлан Джоунс
В ролях: Мишель Монахэн, Марк Уолберг, Мэгги Кью, Киаран Хайндс, Зои Маргарет Коллетти, Джонатан Койн, Фелиция Пирсон, Саид Тагмауи, Аниса Ниэлл Джонсон, Майлз Долеак
Описание: Дэн Морган очень разноплановый: преданный муж, любящий отец, успешный продавец автомобилей. А еще он бывший наемный убийца. Когда его настигает прошлое, он вынужден взять ничего не подозревающую семью в уникальное путешествие.
Качество: WEB-DLRip-AVC
Формат видео: MKV
Видео: 1072x448 (2.40:1), 23.976 fps, AVC, ~2175 Kbps, 0.189 bits/pixel
Аудио: Russian, 48.0 KHz, AC3, 6 ch, 448 Kbps

MediaInfo

Формат                                   : Matroska
Версия формата : Version 4
Размер файла : 2,18 Гбайт
Продолжительность : 1 ч. 58 м.
Режим общего битрейта : Переменный
Общий поток : 2 624 Кбит/сек
Частота кадров : 23,976 кадра/сек
Название фильма : The Family Plan | Rip by порошков
Дата кодирования : 2023-12-16 11:46:14 UTC
Программа кодирования : mkvmerge v81.0 ('Milliontown') 64-bit
Библиотека кодирования : libebml v1.4.4 + libmatroska v1.7.1
Видео
Идентификатор : 1
Формат : AVC
Формат/Информация : Advanced Video Codec
Профиль формата : High@L4.1
Настройки формата : CABAC / 16 Ref Frames
Параметр CABAC формата : Да
Параметр RefFrames формата : 16 кадров
Идентификатор кодека : V_MPEG4/ISO/AVC
Продолжительность : 1 ч. 58 м.
Вид битрейта : Переменный
Битрейт : 2 175 Кбит/сек
Максимальный битрейт : 62,5 Мбит/сек
Ширина : 1 072 пикселя
Высота : 448 пикселей
Соотношение сторон : 2,39:1
Режим частоты кадров : Постоянный
Частота кадров : 23,976 (24000/1001) кадра/сек
Цветовое пространство : YUV
Субдискретизация насыщенности : 4:2:0
Битовая глубина : 8 бит
Тип развёртки : Прогрессивная
Бит/(Пиксели*Кадры) : 0.189
Размер потока : 1,80 Гбайт (83%)
Библиотека кодирования : x264 core 164 r3107 a8b68eb
Настройки программы : cabac=1 / ref=16 / deblock=1:-1:-1 / analyse=0x3:0x133 / me=umh / subme=10 / psy=1 / psy_rd=1.00:0.15 / mixed_ref=1 / me_range=24 / chroma_me=1 / trellis=2 / 8x8dct=1 / cqm=0 / deadzone=21,11 / fast_pskip=1 / chroma_qp_offset=-3 / threads=16 / lookahead_threads=3 / sliced_threads=0 / nr=0 / decimate=1 / interlaced=0 / bluray_compat=0 / constrained_intra=0 / bframes=16 / b_pyramid=2 / b_adapt=2 / b_bias=0 / direct=3 / weightb=1 / open_gop=0 / weightp=2 / keyint=240 / keyint_min=23 / scenecut=40 / intra_refresh=0 / rc_lookahead=60 / rc=2pass / mbtree=1 / bitrate=2175 / ratetol=1.0 / qcomp=0.60 / qpmin=0 / qpmax=69 / qpstep=4 / cplxblur=20.0 / qblur=0.5 / vbv_maxrate=62500 / vbv_bufsize=50000 / nal_hrd=vbr / filler=0 / ip_ratio=1.40 / aq=1:1.00
Default : Да
Forced : Нет
Аудио
Идентификатор : 2
Формат : AC-3
Формат/Информация : Audio Coding 3
Коммерческое название : Dolby Digital
Идентификатор кодека : A_AC3
Продолжительность : 1 ч. 58 м.
Вид битрейта : Постоянный
Битрейт : 448 Кбит/сек
Каналы : 6 каналов
Channel layout : L R C LFE Ls Rs
Частота : 48,0 КГц
Частота кадров : 31,250 кадров/сек (1536 SPF)
Метод сжатия : С потерями
Размер потока : 380 Мбайт (17%)
Язык : Russian
Service kind : Complete Main
Default : Да
Forced : Нет
Текст #1
Идентификатор : 3
Формат : UTF-8
Идентификатор кодека : S_TEXT/UTF8
Идентификатор кодека/Информация : UTF-8 Plain Text
Продолжительность : 1 ч. 51 м.
Битрейт : 4 бит/сек
Частота кадров : 0,012 кадр/сек
Count of elements : 79
Размер потока : 3,33 Кбайт (0%)
Заголовок : forced
Язык : Russian
Default : Да
Forced : Нет
Текст #2
Идентификатор : 4
Формат : UTF-8
Идентификатор кодека : S_TEXT/UTF8
Идентификатор кодека/Информация : UTF-8 Plain Text
Продолжительность : 1 ч. 57 м.
Битрейт : 100 бит/сек
Частота кадров : 0,261 кадр/сек
Count of elements : 1846
Размер потока : 86,6 Кбайт (0%)
Заголовок : RUS
Язык : Russian
Default : Нет
Forced : Нет
Текст #3
Идентификатор : 5
Формат : UTF-8
Идентификатор кодека : S_TEXT/UTF8
Идентификатор кодека/Информация : UTF-8 Plain Text
Продолжительность : 1 ч. 52 м.
Битрейт : 70 бит/сек
Частота кадров : 0,265 кадр/сек
Count of elements : 1792
Размер потока : 58,5 Кбайт (0%)
Заголовок : ENG
Язык : English
Default : Нет
Скриншоты:


Профиль  ЛС 
Dim82

Стаж: 13 лет
Сообщений: 13
Откуда: ??

Создавать темы Dim82 написал(а)
18-Янв-2024 18:45 (спустя 30 дней)
лицензия будет?
Профиль  ЛС 
Показать сообщения:     

Вы не можете начинать темы
Вы не можете отвечать на сообщения
Вы не можете редактировать свои сообщения
Вы не можете удалять свои сообщения
Вы не можете голосовать в опросах
Вы не можете прикреплять файлы к сообщениям
Вы не можете скачивать файлы

Текущее время: 01-Мар 01:44
Часовой пояс: UTC + 5