Чарли Пуля / Fast Charlie (Филлип Нойс) [2023 г., Боевик, криминал, драма, WEB-DL 1080p] Лицензия

Автор Сообщение
rastor ®

Стаж: 15 лет
Сообщений: 5550

Создавать темы rastor ® написал(а)
14-Дек-2023 23:56
Чарли ПуляFast Charlie Год выпуска: 2023
Страна: США
Жанр: Боевик, криминал, драма
Продолжительность: 01:30:12
Перевод: Профессиональный (полное дублирование)
Субтитры: Английские-Режиссер: Филлип Нойс-В ролях: Пирс Броснан, Морена Баккарин, Джеймс Каан, Гбенга Акиннагбе, Колин Сэлмон, Мэтт Кук, Бреннан Кил Кук, Тоби Хасс, Фредрик Лене, Мези Этвуд, Линдси Дж. Смит, Шэрон Глесс, Джейк Гродник-Описание: Чарли Свифт по прозвищу Пуля - хладнокровный киллер и мастер по решению сложных проблем. Много лет он верой и правдой служит своему боссу, мафиози Стэну, пока от того не решает избавиться конкурент. Избежавший расправы герой встает на путь мести, заручившись неожиданной поддержкой Марси - бывшей жены бандита, некогда погибшего от рук Чарли.--Качество: WEB-DL 1080p
Формат: MKV
Видео кодек: H.264
Аудио кодек: AC3
Видео: 1920х1080 23.98fps 6748Kbps
Аудио:
Аудио Rus: 48kHz 6ch 384Kbps
Аудио Eng: 48kHz 6ch 640Kbps

MediaInfo

Формат : Matroska
Версия формата : Version 4
Размер файла : 4,90 Гбайт
Продолжительность : 1 ч. 30 м.
Общий поток : 7 760 Кбит/сек
Название фильма : Fast.Charlie.2023.1080p.AMZN_от New-Team
Дата кодирования : UTC 2023-12-14 12:14:52
Программа кодирования : mkvmerge v80.0 ('Roundabout') 64-bit
Библиотека кодирования : libebml v1.4.4 + libmatroska v1.7.1
Видео
Идентификатор : 1
Формат : AVC
Формат/Информация : Advanced Video Codec
Профиль формата : High@L4
Настройки формата : CABAC / 4 Ref Frames
Параметр CABAC формата : Да
Параметр RefFrames формата : 4 кадра
Идентификатор кодека : V_MPEG4/ISO/AVC
Продолжительность : 1 ч. 30 м.
Вид битрейта : Постоянный
Битрейт : 6 748 Кбит/сек
Номинальный битрейт : 10 000 Кбит/сек
Ширина : 1 920 пикселей
Высота : 800 пикселей
Соотношение сторон : 2,40:1
Режим частоты кадров : Постоянный
Частота кадров : 23,976 (24000/1001) кадра/сек
Цветовое пространство : YUV
Субдискретизация насыщенности : 4:2:0
Битовая глубина : 8 бит
Тип развёртки : Прогрессивная
Бит/(Пиксели*Кадры) : 0.183
Размер потока : 4,25 Гбайт (87%)
Язык : English
Default : Да
Forced : Нет
Цветовой диапазон : Limited
Основные цвета : BT.709
Характеристики трансфера : BT.709
Коэффициенты матрицы : BT.709
Аудио #1
Идентификатор : 2
Формат : AC-3
Формат/Информация : Audio Coding 3
Коммерческое название : Dolby Digital
Идентификатор кодека : A_AC3
Продолжительность : 1 ч. 30 м.
Вид битрейта : Постоянный
Битрейт : 384 Кбит/сек
Каналы : 6 каналов
Channel layout : L R C LFE Ls Rs
Частота : 48,0 КГц
Частота кадров : 31,250 кадров/сек (1536 SPF)
Метод сжатия : С потерями
Размер потока : 248 Мбайт (5%)
Заголовок : DUB
Язык : Russian
Service kind : Complete Main
Default : Да
Forced : Нет
Аудио #2
Идентификатор : 3
Формат : E-AC-3
Формат/Информация : Enhanced AC-3
Коммерческое название : Dolby Digital Plus
Идентификатор кодека : A_EAC3
Продолжительность : 1 ч. 30 м.
Вид битрейта : Постоянный
Битрейт : 640 Кбит/сек
Каналы : 6 каналов
Channel layout : L R C LFE Ls Rs
Частота : 48,0 КГц
Частота кадров : 31,250 кадров/сек (1536 SPF)
Метод сжатия : С потерями
Размер потока : 413 Мбайт (8%)
Заголовок : Original
Язык : English
Service kind : Complete Main
Default : Нет
Forced : Нет
Текст #1
Идентификатор : 4
Формат : UTF-8
Идентификатор кодека : S_TEXT/UTF8
Идентификатор кодека/Информация : UTF-8 Plain Text
Продолжительность : 1 ч. 26 м.
Битрейт : 52 бит/сек
Count of elements : 1032
Размер потока : 33,2 Кбайт (0%)
Заголовок : full
Язык : English
Default : Нет
Forced : Нет
Текст #2
Идентификатор : 5
Формат : UTF-8
Идентификатор кодека : S_TEXT/UTF8
Идентификатор кодека/Информация : UTF-8 Plain Text
Продолжительность : 1 ч. 29 м.
Битрейт : 58 бит/сек
Count of elements : 1237
Размер потока : 38,5 Кбайт (0%)
Заголовок : SDH
Язык : English
Default : Нет
Forced : Нет
Профиль  ЛС 
Показать сообщения:     

Вы не можете начинать темы
Вы не можете отвечать на сообщения
Вы не можете редактировать свои сообщения
Вы не можете удалять свои сообщения
Вы не можете голосовать в опросах
Вы не можете прикреплять файлы к сообщениям
Вы не можете скачивать файлы

Текущее время: 01-Мар 03:43
Часовой пояс: UTC + 5