Последний наёмник / In the Land of Saints and Sinners (Роберт Лоренц) [2023 г., Боевик, триллер, криминал, WEB-DL 1080p] Лицензия

Автор Сообщение
rastor ®

Стаж: 15 лет
Сообщений: 5550

Создавать темы rastor ® написал(а)
14-Дек-2023 23:56
Последний наёмникIn the Land of Saints and Sinners Год выпуска: 2023
Страна: Ирландия
Жанр: Боевик, триллер, криминал
Продолжительность: 01:46:15
Перевод: Профессиональный (полное дублирование)
Субтитры: Русские, английские-Режиссер: Роберт Лоренц-В ролях: Лиам Нисон, Керри Кондон, Джек Глисон, Колм Мини, Киаран Хайндс, Десмонд Иствуд, Сара Грин, Нив Кьюсак, Конор Макнил, Шеймус О’Хара, Валентайн Олукога, Марк О’Ригэн, Лаура Хьюз, Энн Броган, Мишель Глисон-Описание: Легендарный наемный убийца Финбар решает, что он уже не так хорош и ему пора отойти от дел. Но однажды в город, где он залег на дно, наведывается банда и начинает беспредел. Финбару ничего не остается, как встать на сторону правосудия и снова взяться за оружие. И на этот раз он рискует не только собой, но и всеми, кто ему дорог.--Качество: WEB-DL 1080p
Формат: MKV
Видео кодек: H.264
Аудио кодек: AC3
Видео: 1920x800 25fps 6240Kbps
Аудио:
Аудио Rus: 48kHz 6ch 448Kbps
Аудио Eng: 48kHz 6ch 640Kbps

MediaInfo

Формат : Matroska
Версия формата : Version 4
Размер файла : 3,41 Гбайт
Продолжительность : 1 ч. 41 м.
Общий поток : 4 795 Кбит/сек
Название фильма : In.The.Land.of.Saints.and.Sinners.2023.1080p_от New-Team
Дата кодирования : UTC 2023-12-14 16:15:11
Программа кодирования : mkvmerge v80.0 ('Roundabout') 64-bit
Библиотека кодирования : libebml v1.4.4 + libmatroska v1.7.1
Видео
Идентификатор : 1
Формат : AVC
Формат/Информация : Advanced Video Codec
Профиль формата : Main@L4.1
Настройки формата : CABAC / 4 Ref Frames
Параметр CABAC формата : Да
Параметр RefFrames формата : 4 кадра
Параметр GOP формата : M=4, N=50
Идентификатор кодека : V_MPEG4/ISO/AVC
Продолжительность : 1 ч. 41 м.
Битрейт : 3 769 Кбит/сек
Ширина : 1 920 пикселей
Высота : 1 080 пикселей
Соотношение сторон : 16:9
Режим частоты кадров : Постоянный
Частота кадров : 25,000 кадров/сек
Цветовое пространство : YUV
Субдискретизация насыщенности : 4:2:0
Битовая глубина : 8 бит
Тип развёртки : Прогрессивная
Бит/(Пиксели*Кадры) : 0.073
Размер потока : 2,68 Гбайт (79%)
Default : Да
Forced : Нет
Аудио #1
Идентификатор : 2
Формат : AC-3
Формат/Информация : Audio Coding 3
Коммерческое название : Dolby Digital
Идентификатор кодека : A_AC3
Продолжительность : 1 ч. 41 м.
Вид битрейта : Постоянный
Битрейт : 384 Кбит/сек
Каналы : 6 каналов
Channel layout : L R C LFE Ls Rs
Частота : 48,0 КГц
Частота кадров : 31,250 кадров/сек (1536 SPF)
Метод сжатия : С потерями
Размер потока : 280 Мбайт (8%)
Заголовок : DUB - Pazl Voice
Язык : Russian
Service kind : Complete Main
Default : Да
Forced : Нет
Аудио #2
Идентификатор : 3
Формат : E-AC-3
Формат/Информация : Enhanced AC-3
Коммерческое название : Dolby Digital Plus
Идентификатор кодека : A_EAC3
Продолжительность : 1 ч. 41 м.
Вид битрейта : Постоянный
Битрейт : 640 Кбит/сек
Каналы : 6 каналов
Channel layout : L R C LFE Ls Rs
Частота : 48,0 КГц
Частота кадров : 31,250 кадров/сек (1536 SPF)
Метод сжатия : С потерями
Размер потока : 466 Мбайт (13%)
Заголовок : Original
Язык : English
Service kind : Complete Main
Default : Нет
Forced : Нет
Текст
Идентификатор : 4
Формат : UTF-8
Идентификатор кодека : S_TEXT/UTF8
Идентификатор кодека/Информация : UTF-8 Plain Text
Продолжительность : 1 ч. 32 м.
Битрейт : 46 бит/сек
Count of elements : 1151
Размер потока : 31,7 Кбайт (0%)
Заголовок : [full]
Язык : English
Default : Нет
Forced : Нет


Последний раз редактировалось: rastor (2024-02-10 09:52), всего редактировалось 1 раз
Профиль  ЛС 
Panzerfaust

Стаж: 15 лет
Сообщений: 521
Откуда: ANTARCTICA

Создавать темы Panzerfaust написал(а)
16-Дек-2023 06:12 (спустя 1 день 6 часов)
Опана гражданин Нисон еще раз снялся в этом году. Заценим.
Профиль  ЛС 
Показать сообщения:     

Вы не можете начинать темы
Вы не можете отвечать на сообщения
Вы не можете редактировать свои сообщения
Вы не можете удалять свои сообщения
Вы не можете голосовать в опросах
Вы не можете прикреплять файлы к сообщениям
Вы не можете скачивать файлы

Текущее время: 01-Мар 03:44
Часовой пояс: UTC + 5