Капитан Марвел 2 / The Marvels (Ниа ДаКоста) [2023 г., Фэнтези, боевик, приключения, WEBRip 1080p] Лицензия

Автор Сообщение
rastor ®

Стаж: 15 лет
Сообщений: 5550

Создавать темы rastor ® написал(а)
07-Дек-2023 11:00
Капитан Марвел 2The Marvels Год выпуска: 2023
Страна: США
Жанр: Фэнтези, боевик, приключения
Продолжительность: 01:37:37
Перевод: Профессиональный (полное дублирование)-Режиссер: Ниа ДаКоста-В ролях: Бри Ларсон, Тейона Паррис, Иман Веллани, Сэмюэл Л. Джексон, Зави Эштон, Гари Льюис, Пак Со-джун, Зенобия Шрофф, Мохан Капур, Саагар Шайх-Описание: Кэрол Дэнверс обретает свою утраченную личность, отнятую тиранами Крии, и мстит Высшему Разуму. Однако, непредвиденные последствия приводят к тому, что Кэрол взваливает на свои плечи бремя дестабилизированной вселенной. Когда она проходит через червоточину, которая должна вывести её на революционера из числа Крии, её силы переплетаются со способностями суперфанатки из Джерси-Сити, Камалы Хан, известной как Мисс Марвел, а также с племянницей Кэрол, Моникой Рамбо (агентом организации «М. Е. Ч.»). Они должны объединиться и научиться действовать сообща, чтобы спасти вселенную.--Качество: WEBRip 1080p
Формат: MKV
Видео кодек: H.264
Аудио кодек: AC3
Видео: 1920x804 24fps 8155Kbps
Аудио: 48kHz 6ch 448Kbps

MediaInfo

Формат : Matroska
Версия формата : Version 4
Размер файла : 5,87 Гбайт
Продолжительность : 1 ч. 37 м.
Общий поток : 8606 Кбит/сек
Название фильма : Капитан.Марвел.2
Дата кодирования : UTC 2023-12-07 00:35:03
Программа кодирования : mkvmerge v8.3.0 ('Over the Horizon') 64bit
Библиотека кодирования : libebml v1.3.1 + libmatroska v1.4.2
Видео
Идентификатор : 1
Формат : AVC
Формат/Информация : Advanced Video Codec
Профиль формата : High@L4
Настройки формата : CABAC / 1 Ref Frames
Параметр CABAC формата : Да
Параметр RefFrames формата : 1 кадр
Идентификатор кодека : V_MPEG4/ISO/AVC
Продолжительность : 1 ч. 37 м.
Битрейт : 8155 Кбит/сек
Ширина : 1920 пикселей
Высота : 804 пикселя
Соотношение сторон : 2,40:1
Режим частоты кадров : Постоянный
Частота кадров : 24,000 кадра/сек
Цветовое пространство : YUV
Субдискретизация насыщенности : 4:2:0
Битовая глубина : 8 бит
Тип развёртки : Прогрессивная
Бит/(Пиксели*Кадры) : 0.220
Размер потока : 5,56 Гбайт (95%)
Библиотека кодирования : x264 core 158 r2984 3759fcb
Настройки программы : cabac=1 / ref=1 / deblock=1:0:0 / analyse=0x3:0x113 / me=hex / subme=2 / psy=1 / psy_rd=1.00:0.00 / mixed_ref=0 / me_range=16 / chroma_me=1 / trellis=0 / 8x8dct=1 / cqm=0 / deadzone=21,11 / fast_pskip=1 / chroma_qp_offset=0 / threads=6 / lookahead_threads=2 / sliced_threads=0 / nr=0 / decimate=1 / interlaced=0 / bluray_compat=0 / constrained_intra=0 / bframes=0 / weightp=1 / keyint=24 / keyint_min=2 / scenecut=40 / intra_refresh=0 / rc_lookahead=10 / rc=crf / mbtree=1 / crf=18.0 / qcomp=0.60 / qpmin=18 / qpmax=18 / qpstep=4 / ip_ratio=1.40 / aq=1:1.00
Язык : English
Default : Да
Forced : Нет
Аудио
Идентификатор : 2
Формат : AC-3
Формат/Информация : Audio Coding 3
Коммерческое название : Dolby Digital
Идентификатор кодека : A_AC3
Продолжительность : 1 ч. 37 м.
Вид битрейта : Постоянный
Битрейт : 448 Кбит/сек
Каналы : 6 каналов
ChannelLayout : L R C LFE Ls Rs
Частота : 48,0 КГц
Частота кадров : 31,250 кадров/сек (1536 SPF)
Битовая глубина : 16 бит
Метод сжатия : С потерями
Задержка видео : -6 мс.
Размер потока : 313 Мбайт (5%)
Язык : Russian
ServiceKind : Complete Main
Default : Да
Forced : Нет
Профиль  ЛС 
Показать сообщения:     

Вы не можете начинать темы
Вы не можете отвечать на сообщения
Вы не можете редактировать свои сообщения
Вы не можете удалять свои сообщения
Вы не можете голосовать в опросах
Вы не можете прикреплять файлы к сообщениям
Вы не можете скачивать файлы

Текущее время: 01-Мар 04:01
Часовой пояс: UTC + 5