Убийцы цветочной луны / Killers of the Flower Moon (Мартин Скорсезе) [2023 г., Триллер, драма, криминал, детектив, вестерн, история, WEB-DL 1080p] Лицензия

Автор Сообщение
rastor ®

Стаж: 15 лет
Сообщений: 5550

Создавать темы rastor ® написал(а)
05-Дек-2023 23:31
Убийцы цветочной луныKillers of the Flower Moon Год выпуска: 2023
Страна: США
Жанр: Триллер, драма, криминал, детектив, вестерн, история
Продолжительность: 03:28:09
Перевод: Профессиональный (полное дублирование)
Cубтитры: Русские, английские-Режиссер: Мартин Скорсезе-В ролях: Леонардо ДиКаприо, Роберт Де Ниро, Лили Гладстон, Джесси Племонс, Танту Кардинал, Джон Литгоу, Брендан Фрейзер, Кара Джейд Майерс, Джейни Коллинз, Джиллиан Дион-Описание: Вскоре после Первой мировой Эрнест Беркхарт, отслуживший во Франции поваром, приезжает искать удачи в Оклахому, где находится крупная резервация индейцев племени осейдж. В тех краях живет его дядя Уильям Хэйл, который носит прозвище Король - он землевладелец, скотопромышленник, друг индейцев и большой человек. Король убеждает Эрнеста посвататься к Молли Кайл, молодой женщине из зажиточной индейской семьи. Идея состоит в том, чтобы земельные права этой семьи со временем перешли к Беркхарту (читай к Хэйлу), а для этого всего лишь должны умереть мама Молли, её сёстры и она сама.--Качество: WEB-DL 1080p
Формат: MKV
Видео кодек: H.264
Аудио кодек: AC3
Видео: 1920x800 23.98fps 8504Kbps
Аудио:
Аудио Rus: 48kHz 6ch 448Kbps
Аудио Eng: 48kHz 6ch 768Kbps

MediaInfo

Формат : Matroska
Версия формата : Version 4
Размер файла : 15,2 Гбайт
Продолжительность : 3 ч. 28 м.
Общий поток : 10,5 Мбит/сек
Название фильма : Killers.Of.The.Flower.Moon.2023.1080p_от New-Team
Дата кодирования : UTC 2023-12-05 11:34:15
Программа кодирования : mkvmerge v80.0 ('Roundabout') 64-bit
Библиотека кодирования : libebml v1.4.4 + libmatroska v1.7.1
Видео
Идентификатор : 1
Формат : AVC
Формат/Информация : Advanced Video Codec
Профиль формата : High@L4
Настройки формата : CABAC / 4 Ref Frames
Параметр CABAC формата : Да
Параметр RefFrames формата : 4 кадра
Идентификатор кодека : V_MPEG4/ISO/AVC
Продолжительность : 3 ч. 28 м.
Вид битрейта : Постоянный
Битрейт : 8 504 Кбит/сек
Номинальный битрейт : 10 000 Кбит/сек
Ширина : 1 920 пикселей
Высота : 800 пикселей
Соотношение сторон : 2,40:1
Режим частоты кадров : Постоянный
Частота кадров : 23,976 (24000/1001) кадра/сек
Цветовое пространство : YUV
Субдискретизация насыщенности : 4:2:0
Битовая глубина : 8 бит
Тип развёртки : Прогрессивная
Бит/(Пиксели*Кадры) : 0.231
Размер потока : 12,4 Гбайт (81%)
Язык : English
Default : Да
Forced : Нет
Цветовой диапазон : Limited
Основные цвета : BT.709
Характеристики трансфера : BT.709
Коэффициенты матрицы : BT.709
Аудио #1
Идентификатор : 2
Формат : AC-3
Формат/Информация : Audio Coding 3
Коммерческое название : Dolby Digital
Идентификатор кодека : A_AC3
Продолжительность : 3 ч. 26 м.
Вид битрейта : Постоянный
Битрейт : 448 Кбит/сек
Каналы : 6 каналов
Channel layout : L R C LFE Ls Rs
Частота : 48,0 КГц
Частота кадров : 31,250 кадров/сек (1536 SPF)
Метод сжатия : С потерями
Размер потока : 660 Мбайт (4%)
Заголовок : DUB - Невафильм
Язык : Russian
Service kind : Complete Main
Default : Да
Forced : Нет
Аудио #2
Идентификатор : 3
Формат : E-AC-3 JOC
Формат/Информация : Enhanced AC-3 with Joint Object Coding
Коммерческое название : Dolby Digital Plus with Dolby Atmos
Идентификатор кодека : A_EAC3
Продолжительность : 3 ч. 26 м.
Вид битрейта : Постоянный
Битрейт : 768 Кбит/сек
Каналы : 6 каналов
Channel layout : L R C LFE Ls Rs
Частота : 48,0 КГц
Частота кадров : 31,250 кадров/сек (1536 SPF)
Метод сжатия : С потерями
Размер потока : 1,11 Гбайт (7%)
Заголовок : DUB - Невафильм
Язык : Russian
Service kind : Complete Main
Default : Нет
Forced : Нет
Complexity index : 16
Number of dynamic objects : 15
Bed channel count : 1 канал
Bed channel configuration : LFE
Аудио #3
Идентификатор : 4
Формат : E-AC-3 JOC
Формат/Информация : Enhanced AC-3 with Joint Object Coding
Коммерческое название : Dolby Digital Plus with Dolby Atmos
Идентификатор кодека : A_EAC3
Продолжительность : 3 ч. 26 м.
Вид битрейта : Постоянный
Битрейт : 768 Кбит/сек
Каналы : 6 каналов
Channel layout : L R C LFE Ls Rs
Частота : 48,0 КГц
Частота кадров : 31,250 кадров/сек (1536 SPF)
Метод сжатия : С потерями
Задержка видео : 20 мс.
Размер потока : 1,11 Гбайт (7%)
Заголовок : Original
Язык : English
Service kind : Complete Main
Default : Нет
Forced : Нет
Complexity index : 16
Number of dynamic objects : 15
Bed channel count : 1 канал
Bed channel configuration : LFE
Текст #1
Идентификатор : 5
Формат : UTF-8
Идентификатор кодека : S_TEXT/UTF8
Идентификатор кодека/Информация : UTF-8 Plain Text
Продолжительность : 3 ч. 21 м.
Битрейт : 2 бит/сек
Count of elements : 89
Размер потока : 3,66 Кбайт (0%)
Заголовок : [forced]
Язык : Russian
Default : Да
Forced : Нет
Текст #2
Идентификатор : 6
Формат : UTF-8
Идентификатор кодека : S_TEXT/UTF8
Идентификатор кодека/Информация : UTF-8 Plain Text
Продолжительность : 3 ч. 24 м.
Битрейт : 82 бит/сек
Count of elements : 2390
Размер потока : 123 Кбайт (0%)
Заголовок : [full]
Язык : Russian
Default : Нет
Forced : Нет
Текст #3
Идентификатор : 7
Формат : UTF-8
Идентификатор кодека : S_TEXT/UTF8
Идентификатор кодека/Информация : UTF-8 Plain Text
Продолжительность : 2 ч. 48 м.
Битрейт : 1 бит/сек
Count of elements : 72
Размер потока : 1,66 Кбайт (0%)
Заголовок : [forced]
Язык : English
Default : Нет
Forced : Нет
Текст #4
Идентификатор : 8
Формат : UTF-8
Идентификатор кодека : S_TEXT/UTF8
Идентификатор кодека/Информация : UTF-8 Plain Text
Продолжительность : 3 ч. 11 м.
Битрейт : 60 бит/сек
Count of elements : 2411
Размер потока : 85,3 Кбайт (0%)
Заголовок : [full]
Язык : English
Default : Нет
Forced : Нет
Текст #5
Идентификатор : 9
Формат : UTF-8
Идентификатор кодека : S_TEXT/UTF8
Идентификатор кодека/Информация : UTF-8 Plain Text
Продолжительность : 3 ч. 17 м.
Битрейт : 66 бит/сек
Count of elements : 2735
Размер потока : 96,9 Кбайт (0%)
Заголовок : [SDH]
Язык : English
Default : Нет
Forced : Нет
Профиль  ЛС 
Panzerfaust

Стаж: 15 лет
Сообщений: 521
Откуда: ANTARCTICA

Создавать темы Panzerfaust написал(а)
03-Янв-2024 00:31 (спустя 28 дней)
Осилил такой длинный фильм, понравился, с тонким черным юмором, тут полный порядок.
Профиль  ЛС 
Показать сообщения:     

Вы не можете начинать темы
Вы не можете отвечать на сообщения
Вы не можете редактировать свои сообщения
Вы не можете удалять свои сообщения
Вы не можете голосовать в опросах
Вы не можете прикреплять файлы к сообщениям
Вы не можете скачивать файлы

Текущее время: 01-Мар 04:02
Часовой пояс: UTC + 5