Папа из спецназа / Пенсионный план / The Retirement Plan (Тим Браун) [2023, Канада, боевик, триллер, комедия, криминал, WEB-DLRip-AVC] Dub (OKKO) + DVO (Кубик в Кубе) + Sub Rus + Original Eng

Автор Сообщение
sergoufaVDV ®

Стаж: 8 лет 6 месяцев
Сообщений: 1229
Откуда: Нагаево

Создавать темы sergoufaVDV ® написал(а)
16-Ноя-2023 20:26
Папа из спецназа / Пенсионный план / The Retirement Plan
Страна: Канада
Жанр: боевик, триллер, комедия, криминал
Год выпуска: 2023
Продолжительность: 01:42:53
Перевод 1: Профессиональный (полное дублирование) OKKO
Перевод 2: Профессиональный (двухголосый, закадровый) Кубик в Кубе
Cубтитры: Русские (Полные), Английские (Full, SDH)
Оригинальная аудиодорожка: английский
Режиссер: Тим Браун
В ролях: Николас Кейдж, Эшли Грин, Рон Перлман, Джеки Эрл Хейли, Эрни Хадсон, Джоэль Мур, Грейс Байерс, Линн Уитфилд, Рик Фокс, Джордан Джонсон-Хиндс...

Описание: Спасаясь от разъяренного криминального босса Эшли со своей маленькой дочерью Сарой вынуждена обратиться к единственному человеку, способному ей помочь — Мэтту, ее отцу, которого она не видела уже очень давно. Мэтт кажется обычным пожилым пляжным бездельником, но та эффективность, с которой он раз за разом легко избавляется от вооруженных до зубов преследователей, говорит об одном — в своем тайном прошлом ее папа был не так уж прост.
Качество: WEB-DLRip-AVC
Формат видео: MKV
Видео: AVC, 1152x576p (2.000), 2440 kbps, 23.976 fps, 0.153 bit/pixel.
Аудио 1: AC3 Dolby Digital, 3/2 (L,C,R,l,r) + LFE ch, 48.0 KHz, 384 Kbps.
Аудио 2: AC3 Dolby Digital, 3/2 (L,C,R,l,r) + LFE ch, 48.0 KHz, 384 Kbps.
Аудио 3: AC3 Dolby Digital, 3/2 (L,C,R,l,r) + LFE ch, 48.0 KHz, 448 Kbps.

MediaInfo

General
Unique ID : 199765505139380143122272616246025588619 (0x96496FD3757D7704AFF481645D630F8B)
Complete name : The Retirement Plan (2023).mkv
Format : Matroska
Format version : Version 4
File size : 2.63 GiB
Duration : 1 h 42 min
Overall bit rate : 3 656 kb/s
Frame rate : 23.976 FPS
Movie name : The Retirement Plan / Папа из спецназа (2023)
Encoded date : 2023-10-06 17:56:41 UTC
Writing application : mkvmerge v8.1.0 ('Psychedelic Postcard') 64bit
Writing library : libebml v1.3.1 + libmatroska v1.4.2
Cover : Yes
Attachments : cover.jpg
Video
ID : 1
Format : AVC
Format/Info : Advanced Video Codec
Format profile : High@L4.1
Format settings : CABAC / 11 Ref Frames
Format settings, CABAC : Yes
Format settings, Reference : 11 frames
Codec ID : V_MPEG4/ISO/AVC
Duration : 1 h 42 min
Bit rate : 2 440 kb/s
Width : 1 152 pixels
Height : 576 pixels
Display aspect ratio : 2.000
Frame rate mode : Constant
Frame rate : 23.976 (24000/1001) FPS
Color space : YUV
Chroma subsampling : 4:2:0
Bit depth : 8 bits
Scan type : Progressive
Bits/(Pixel*Frame) : 0.153
Stream size : 1.75 GiB (67%)
Title : The Retirement Plan (2023) By optik1557
Writing library : x264 core 164 r3107 a8b68eb
Encoding settings : cabac=1 / ref=11 / deblock=1:-2:-2 / analyse=0x3:0x133 / me=umh / subme=10 / psy=1 / psy_rd=1.05:0.01 / mixed_ref=1 / me_range=48 / chroma_me=1 / trellis=2 / 8x8dct=1 / cqm=0 / deadzone=21,11 / fast_pskip=0 / chroma_qp_offset=-2 / threads=6 / lookahead_threads=1 / sliced_threads=0 / nr=0 / decimate=1 / interlaced=0 / bluray_compat=0 / constrained_intra=0 / bframes=12 / b_pyramid=2 / b_adapt=2 / b_bias=0 / direct=1 / weightb=1 / open_gop=0 / weightp=2 / keyint=250 / keyint_min=23 / scenecut=40 / intra_refresh=0 / rc_lookahead=60 / rc=crf / mbtree=0 / crf=18.7 / qcomp=0.70 / qpmin=0 / qpmax=69 / qpstep=4 / vbv_maxrate=50000 / vbv_bufsize=62500 / crf_max=0.0 / nal_hrd=none / filler=0 / ip_ratio=1.40 / pb_ratio=1.30 / aq=3:0.85
Language : English
Default : Yes
Forced : No
Color range : Limited
Matrix coefficients : BT.709
Audio #1
ID : 2
Format : AC-3
Format/Info : Audio Coding 3
Commercial name : Dolby Digital
Codec ID : A_AC3
Duration : 1 h 42 min
Bit rate mode : Constant
Bit rate : 384 kb/s
Channel(s) : 6 channels
Channel layout : L R C LFE Ls Rs
Sampling rate : 48.0 kHz
Frame rate : 31.250 FPS (1536 SPF)
Compression mode : Lossy
Stream size : 282 MiB (10%)
Title : Дубляж (OKKO)
Language : Russian
Service kind : Complete Main
Default : Yes
Forced : No
Audio #2
ID : 3
Format : AC-3
Format/Info : Audio Coding 3
Commercial name : Dolby Digital
Codec ID : A_AC3
Duration : 1 h 42 min
Bit rate mode : Constant
Bit rate : 384 kb/s
Channel(s) : 6 channels
Channel layout : L R C LFE Ls Rs
Sampling rate : 48.0 kHz
Frame rate : 31.250 FPS (1536 SPF)
Compression mode : Lossy
Stream size : 283 MiB (11%)
Title : DVO (Кубик в Кубе)
Language : Russian
Service kind : Complete Main
Default : No
Forced : No
Audio #3
ID : 4
Format : AC-3
Format/Info : Audio Coding 3
Commercial name : Dolby Digital
Codec ID : A_AC3
Duration : 1 h 42 min
Bit rate mode : Constant
Bit rate : 448 kb/s
Channel(s) : 6 channels
Channel layout : L R C LFE Ls Rs
Sampling rate : 48.0 kHz
Frame rate : 31.250 FPS (1536 SPF)
Compression mode : Lossy
Stream size : 330 MiB (12%)
Title : Original
Language : English
Service kind : Complete Main
Default : No
Forced : No
Text #1
ID : 5
Format : UTF-8
Codec ID : S_TEXT/UTF8
Codec ID/Info : UTF-8 Plain Text
Duration : 1 h 38 min
Bit rate : 92 b/s
Frame rate : 0.291 FPS
Count of elements : 1716
Stream size : 66.7 KiB (0%)
Title : Полные
Language : Russian
Default : No
Forced : No
Text #2
ID : 6
Format : UTF-8
Codec ID : S_TEXT/UTF8
Codec ID/Info : UTF-8 Plain Text
Duration : 1 h 37 min
Bit rate : 63 b/s
Frame rate : 0.291 FPS
Count of elements : 1709
Stream size : 45.7 KiB (0%)
Title : Full
Language : English
Default : No
Forced : No
Text #3
ID : 7
Format : UTF-8
Codec ID : S_TEXT/UTF8
Codec ID/Info : UTF-8 Plain Text
Duration : 1 h 38 min
Bit rate : 67 b/s
Frame rate : 0.314 FPS
Count of elements : 1864
Stream size : 48.5 KiB (0%)
Title : SDH
Language : English
Default : No
Forced : No
Menu
00:00:00.000 : en:Глава 01
00:05:50.000 : en:Глава 02
00:11:40.000 : en:Глава 03
00:17:30.000 : en:Глава 04
00:23:20.000 : en:Глава 05
00:29:10.000 : en:Глава 06
00:35:00.000 : en:Глава 07
00:40:50.000 : en:Глава 08
00:46:40.000 : en:Глава 09
00:52:30.000 : en:Глава 10
00:58:20.000 : en:Глава 11
01:04:10.000 : en:Глава 12
01:10:00.000 : en:Глава 13
01:15:50.000 : en:Глава 14
01:21:40.000 : en:Глава 15
01:27:30.000 : en:Глава 16
01:33:20.000 : en:Глава 17
01:39:10.000 : en:Глава 18
Скриншоты:
]

[/spoiler
Профиль  ЛС 
Показать сообщения:     

Вы не можете начинать темы
Вы не можете отвечать на сообщения
Вы не можете редактировать свои сообщения
Вы не можете удалять свои сообщения
Вы не можете голосовать в опросах
Вы не можете прикреплять файлы к сообщениям
Вы не можете скачивать файлы

Текущее время: 21-Июл 20:36
Часовой пояс: UTC + 5