Экзорцист Ватикана / The Pope's Exorcist (Джулиус Эйвери) [2023, США, Великобритания, Испания, ужасы, WEB-DLRip-AVC] MVO (TVShows // thx. FLEX) + MVO (Jaskier | 18+) + Sub Eng + Original Eng

Автор Сообщение
sergoufaVDV ®

Стаж: 8 лет 5 месяцев
Сообщений: 1223
Откуда: Нагаево

Создавать темы sergoufaVDV ® написал(а)
19-Май-2023 20:28
Экзорцист Ватикана / The Pope's Exorcist
Страна: США, Великобритания, Испания
Жанр: ужасы
Год выпуска: 2023
Продолжительность: 01:43:29
Перевод: Профессиональный (многоголосый, закадровый) TVShows // thx. FLEX
Перевод 2: Профессиональный (многоголосый, закадровый) Jaskier | 18+
Cубтитры: английские(forced, full, SDH), русские (forced txh. JNS82)
Оригинальная аудиодорожка: английский
Формат субтитров: softsub (SRT)
Режиссер: Джулиус Эйвери
В ролях: Рассел Кроу, Дэниэл Дзоватто, Александра Эссоу, Франко Неро, Питер ДеСоуза-Фейхони, Лорел Марсден, Корнелл Джон, Райан О’Грэйди, Бьянка Бардо, Санти Байон
Описание: В поисках причин жуткой одержимости маленького мальчика экзорцист Габриэль Аморт узнаёт и раскрывает многовековой заговор, который Ватикан отчаянно пытался скрыть.
Сэмпл: http://multi-up.com/1304651
Качество: WEB-DLRip-AVC
Формат видео: MKV
Видео: MPEG-4 AVC, 1754 kbps, 1024x432 (2.40:1), 23.976 fps, 0.165 bit/pixel, High@L4.1
Аудио 1 : 48 kHz, AC3 Dolby Digital, 3/2 (L,C,R,l,r) + LFE ch, ~384 kbps | Многоголосый закадровый (TVShows)
Аудио 2: 48 kHz, AC3 Dolby Digital, 3/2 (L,C,R,l,r) + LFE ch, ~384 kbps | Многоголосый закадровый (Jaskier | ненормативная лексика)
Аудио 3: 48 kHz, AC3 Dolby Digital, 3/2 (L,C,R,l,r) + LFE ch, ~448 kbps | Английский

MediaInfo

avs [info]: 1024x432p 1:1 @ 24000/1001 fps (cfr)
x264 [info]: using SAR=1/1
x264 [info]: using cpu capabilities: MMX2 SSE2Fast SSSE3 SSE4.2 AVX FMA3 BMI2 AVX2
x264 [info]: profile High, level 4.1, 4:2:0, 8-bit
x264 [info]: frame I:1400 Avg QP:13.71 size: 54386
x264 [info]: frame P:34244 Avg QP:15.07 size: 21128
x264 [info]: frame B:113237 Avg QP:17.79 size: 4963
x264 [info]: consecutive B-frames: 1.8% 2.6% 7.0% 42.7% 15.3% 20.7% 4.7% 3.9% 0.5% 0.3% 0.4%
x264 [info]: mb I I16..4: 7.2% 78.1% 14.7%
x264 [info]: mb P I16..4: 1.7% 11.3% 1.5% P16..4: 53.8% 15.2% 9.5% 0.0% 0.0% skip: 6.9%
x264 [info]: mb B I16..4: 0.2% 0.5% 0.1% B16..8: 43.2% 7.7% 2.1% direct: 5.7% skip:40.5% L0:43.4% L1:48.7% BI: 7.9%
x264 [info]: 8x8 transform intra:76.9% inter:65.7%
x264 [info]: direct mvs spatial:100.0% temporal:0.0%
x264 [info]: coded y,uvDC,uvAC intra: 81.8% 92.3% 87.9% inter: 13.7% 28.4% 18.7%
x264 [info]: i16 v,h,dc,p: 30% 14% 12% 45%
x264 [info]: i8 v,h,dc,ddl,ddr,vr,hd,vl,hu: 11% 7% 9% 10% 13% 13% 12% 12% 13%
x264 [info]: i4 v,h,dc,ddl,ddr,vr,hd,vl,hu: 10% 6% 4% 13% 15% 14% 12% 12% 14%
x264 [info]: i8c dc,h,v,p: 58% 15% 16% 11%
x264 [info]: Weighted P-Frames: Y:8.1% UV:5.5%
x264 [info]: ref P L0: 46.6% 5.1% 17.9% 7.0% 5.9% 3.7% 3.5% 1.8% 1.9% 1.3% 1.3% 0.9% 1.0% 0.7% 0.8% 0.6%
x264 [info]: ref B L0: 69.1% 13.6% 6.1% 3.1% 2.0% 1.5% 1.1% 0.8% 0.7% 0.6% 0.4% 0.4% 0.3% 0.2% 0.1%
x264 [info]: ref B L1: 93.5% 6.5%
x264 [info]: kb/s:1754.24
encoded 148881 frames, 11.94 fps, 1754.24 kb/s
Final statistics
==========================================================
General
Unique ID : 13055431154647338943369985869722499541 (0x9D26273D1BD11347E7E24C2F05539D5)
Complete name : D:\Ekzorcist.Vatikana.2023.MA.WEB-DLRip.AVC.mkv
Format : Matroska
Format version : Version 4
File size : 2.15 GiB
Duration : 1 h 43 min
Overall bit rate : 2 967 kb/s
Frame rate : 23.976 FPS
Movie name : Ekzorcist.Vatikana.2023.MA.WEB-DLRip.AVC_vitolinform
Encoded date : 2023-05-05 11:08:19 UTC
Writing application : mkvmerge v76.0 ('Celebration') 64-bit
Writing library : libebml v1.4.4 + libmatroska v1.7.1
Attachments : poster.jpg / log.log
Video
ID : 1
Format : AVC
Format/Info : Advanced Video Codec
Format profile : High@L4.1
Format settings : CABAC / 16 Ref Frames
Format settings, CABAC : Yes
Format settings, Reference frames : 16 frames
Codec ID : V_MPEG4/ISO/AVC
Duration : 1 h 43 min
Bit rate : 1 754 kb/s
Width : 1 024 pixels
Height : 432 pixels
Display aspect ratio : 2.40:1
Frame rate mode : Constant
Frame rate : 23.976 (24000/1001) FPS
Color space : YUV
Chroma subsampling : 4:2:0
Bit depth : 8 bits
Scan type : Progressive
Bits/(Pixel*Frame) : 0.165
Stream size : 1.27 GiB (59%)
Title : Экзорцист Ватикана / The Pope's Exorcist (2023)
Writing library : x264 core 164 r3106 eaa68fa
Encoding settings : cabac=1 / ref=16 / deblock=1:-3:-3 / analyse=0x3:0x113 / me=umh / subme=10 / psy=1 / psy_rd=1.00:0.05 / mixed_ref=0 / me_range=32 / chroma_me=1 / trellis=2 / 8x8dct=1 / cqm=0 / deadzone=21,11 / fast_pskip=0 / chroma_qp_offset=-6 / threads=12 / lookahead_threads=3 / sliced_threads=0 / nr=0 / decimate=1 / interlaced=0 / bluray_compat=0 / constrained_intra=0 / bframes=10 / b_pyramid=2 / b_adapt=2 / b_bias=0 / direct=3 / weightb=1 / open_gop=0 / weightp=2 / keyint=240 / keyint_min=23 / scenecut=40 / intra_refresh=0 / rc_lookahead=40 / rc=crf / mbtree=0 / crf=18.8 / qcomp=0.60 / qpmin=0 / qpmax=69 / qpstep=4 / vbv_maxrate=50000 / vbv_bufsize=62500 / crf_max=0.0 / nal_hrd=none / filler=0 / ip_ratio=1.40 / pb_ratio=1.35 / aq=1:1.00
Language : English
Default : Yes
Forced : No
Color range : Limited
Color primaries : BT.709
Transfer characteristics : BT.709
Matrix coefficients : BT.709
Audio #1
ID : 2
Format : AC-3
Format/Info : Audio Coding 3
Commercial name : Dolby Digital
Codec ID : A_AC3
Duration : 1 h 43 min
Bit rate mode : Constant
Bit rate : 384 kb/s
Channel(s) : 6 channels
Channel layout : L R C LFE Ls Rs
Sampling rate : 48.0 kHz
Frame rate : 31.250 FPS (1536 SPF)
Compression mode : Lossy
Stream size : 285 MiB (13%)
Title : MVO | TVShows
Language : Russian
Service kind : Complete Main
Default : Yes
Forced : No
Audio #2
ID : 3
Format : AC-3
Format/Info : Audio Coding 3
Commercial name : Dolby Digital
Codec ID : A_AC3
Duration : 1 h 43 min
Bit rate mode : Constant
Bit rate : 384 kb/s
Channel(s) : 6 channels
Channel layout : L R C LFE Ls Rs
Sampling rate : 48.0 kHz
Frame rate : 31.250 FPS (1536 SPF)
Compression mode : Lossy
Stream size : 284 MiB (13%)
Title : MVO | Jaskier | 18+
Language : Russian
Service kind : Complete Main
Default : No
Forced : No
Audio #3
ID : 4
Format : AC-3
Format/Info : Audio Coding 3
Commercial name : Dolby Digital
Codec ID : A_AC3
Duration : 1 h 43 min
Bit rate mode : Constant
Bit rate : 448 kb/s
Channel(s) : 6 channels
Channel layout : L R C LFE Ls Rs
Sampling rate : 48.0 kHz
Frame rate : 31.250 FPS (1536 SPF)
Compression mode : Lossy
Stream size : 332 MiB (15%)
Title : English
Language : English
Service kind : Complete Main
Default : No
Forced : No
Text #1
ID : 5
Format : ASS
Codec ID : S_TEXT/ASS
Codec ID/Info : Advanced Sub Station Alpha
Duration : 1 h 36 min
Bit rate : 15 b/s
Frame rate : 0.020 FPS
Count of elements : 118
Compression mode : Lossless
Stream size : 11.2 KiB (0%)
Title : Forced
Language : Russian
Default : Yes
Forced : Yes
Text #2
ID : 6
Format : UTF-8
Codec ID : S_TEXT/UTF8
Codec ID/Info : UTF-8 Plain Text
Duration : 1 h 32 min
Bit rate : 4 b/s
Frame rate : 0.021 FPS
Count of elements : 115
Stream size : 3.19 KiB (0%)
Title : Forced
Language : English
Default : No
Forced : No
Text #3
ID : 7
Format : UTF-8
Codec ID : S_TEXT/UTF8
Codec ID/Info : UTF-8 Plain Text
Duration : 1 h 35 min
Bit rate : 47 b/s
Frame rate : 0.199 FPS
Count of elements : 1139
Stream size : 33.3 KiB (0%)
Title : Full
Language : English
Default : No
Forced : No
Text #4
ID : 8
Format : UTF-8
Codec ID : S_TEXT/UTF8
Codec ID/Info : UTF-8 Plain Text
Duration : 1 h 37 min
Bit rate : 56 b/s
Frame rate : 0.233 FPS
Count of elements : 1370
Stream size : 40.2 KiB (0%)
Title : SDH
Language : English
Default : No
Forced : No
Menu
00:00:00.000 : en:Chapter 01
00:06:17.000 : en:Chapter 02
00:13:13.000 : en:Chapter 03
00:19:04.000 : en:Chapter 04
00:26:18.000 : en:Chapter 05
00:32:21.000 : en:Chapter 06
00:40:16.000 : en:Chapter 07
00:45:58.000 : en:Chapter 08
00:51:36.000 : en:Chapter 09
00:59:00.000 : en:Chapter 10
01:05:28.000 : en:Chapter 11
01:10:17.000 : en:Chapter 12
01:16:56.000 : en:Chapter 13
01:25:13.000 : en:Chapter 14
01:32:07.000 : en:Chapter 15
01:36:39.000 : en:Chapter 16
Скриншоты:


Профиль  ЛС 
Показать сообщения:     

Вы не можете начинать темы
Вы не можете отвечать на сообщения
Вы не можете редактировать свои сообщения
Вы не можете удалять свои сообщения
Вы не можете голосовать в опросах
Вы не можете прикреплять файлы к сообщениям
Вы не можете скачивать файлы

Текущее время: 24-Июн 23:50
Часовой пояс: UTC + 5