Бандит / Bandit (Аллан Ангар) [2022 г., Триллер, драма, криминал, WEB-DL 1080p] Лицензия

Автор Сообщение
rastor ®

Стаж: 14 лет
Сообщений: 5381

Создавать темы rastor ® написал(а)
17-Ноя-2022 08:54
БандитBandit Год выпуска: 2022
Страна: Канада
Жанр: Триллер, драма, криминал
Продолжительность: 02:05:49
Перевод: Профессиональный (полное дублирование)
Субтитры: Русские, английские-Режиссер: Аллан Ангар-В ролях: Мэл Гибсон, Элиша Катберт, Оливия д'Або, Джош Дюамель, Нестор Карбонелл, Хейли Уэбб, Рэйчел Маркариан, Клер Бронсон, Свен Теммел, Лесли Стрэттон-Описание: Гилберту Галвану-младшему удается сбежать из американской тюрьмы и перебраться в Канаду. Влюбившись в соцработницу Андреа, он решает начать грабить банки, чтобы она ни в чем не нуждалась. Вести двойную жизнь оказывается непросто, но сначала у опытного грабителя мастерски получается заметать следы.--Качество: WEB-DL 1080p
Формат: MKV
Видео кодек: H.264
Аудио кодек: AC3
Видео: 1920x800 23.98fps 4988Kbps
Аудио:
Аудио Rus: 48kHz 6ch 384Kbps
Аудио Eng: 48kHz 6ch 384Kbps

MediaInfo

Format : Matroska
Format version : Version 4
File size : 5.06 GiB
Duration : 2 h 5 min
Overall bit rate : 5 758 kb/s
Movie name : Bandit 2022 from seleZen
Encoded date : UTC 2022-11-17 00:52:14
Writing application : mkvmerge v59.0.0 ('Shining Star') 64-bit
Writing library : libebml v1.4.2 + libmatroska v1.6.4
Video
ID : 1
Format : AVC
Format/Info : Advanced Video Codec
Format profile : High@L4
Format settings : CABAC / 3 Ref Frames
Format settings, CABAC : Yes
Format settings, Reference : 3 frames
Codec ID : V_MPEG4/ISO/AVC
Duration : 2 h 5 min
Bit rate : 4 988 kb/s
Width : 1 920 pixels
Height : 800 pixels
Display aspect ratio : 2.40:1
Frame rate mode : Constant
Frame rate : 23.976 (23976/1000) FPS
Color space : YUV
Chroma subsampling : 4:2:0
Bit depth : 8 bits
Scan type : Progressive
Bits/(Pixel*Frame) : 0.135
Stream size : 4.38 GiB (87%)
Language : English
Default : Yes
Forced : No
Audio #1
ID : 2
Format : AC-3
Format/Info : Audio Coding 3
Commercial name : Dolby Digital
Codec ID : A_AC3
Duration : 2 h 5 min
Bit rate mode : Constant
Bit rate : 384 kb/s
Channel(s) : 6 channels
Channel layout : L R C LFE Ls Rs
Sampling rate : 48.0 kHz
Frame rate : 31.250 FPS (1536 SPF)
Compression mode : Lossy
Stream size : 345 MiB (7%)
Title : Dub
Language : Russian
Service kind : Complete Main
Default : Yes
Forced : Yes
Audio #2
ID : 3
Format : AC-3
Format/Info : Audio Coding 3
Commercial name : Dolby Digital
Codec ID : A_AC3
Duration : 2 h 5 min
Bit rate mode : Constant
Bit rate : 384 kb/s
Channel(s) : 6 channels
Channel layout : L R C LFE Ls Rs
Sampling rate : 48.0 kHz
Frame rate : 31.250 FPS (1536 SPF)
Compression mode : Lossy
Stream size : 346 MiB (7%)
Title : Original
Language : English
Service kind : Complete Main
Default : No
Forced : No
Text #1
ID : 4
Format : UTF-8
Codec ID : S_TEXT/UTF8
Codec ID/Info : UTF-8 Plain Text
Duration : 1 h 57 min
Bit rate : 69 b/s
Frame rate : 0.311 FPS
Count of elements : 2186
Stream size : 59.3 KiB (0%)
Title : Full
Language : English
Default : No
Forced : No
Text #2
ID : 5
Format : UTF-8
Codec ID : S_TEXT/UTF8
Codec ID/Info : UTF-8 Plain Text
Duration : 1 h 58 min
Bit rate : 75 b/s
Frame rate : 0.349 FPS
Count of elements : 2480
Stream size : 65.6 KiB (0%)
Title : SDH
Language : English
Default : No
Forced : No
Menu
00:00:00.000 : Chapter 01
00:08:30.673 : Chapter 02
00:23:10.220 : Chapter 03
00:38:33.643 : Chapter 04
00:47:30.221 : Chapter 05
00:59:49.961 : Chapter 06
01:09:31.543 : Chapter 07
01:19:07.327 : Chapter 08
01:30:03.441 : Chapter 09
01:39:36.931 : Chapter 10
01:49:04.290 : Chapter 11
01:58:20.305 : Chapter 12
Профиль  ЛС 
Показать сообщения:     

Вы не можете начинать темы
Вы не можете отвечать на сообщения
Вы не можете редактировать свои сообщения
Вы не можете удалять свои сообщения
Вы не можете голосовать в опросах
Вы не можете прикреплять файлы к сообщениям
Вы не можете скачивать файлы

Текущее время: 04-Дек 13:22
Часовой пояс: UTC + 5