Быстрее пули / Bullet Train (Дэвид Литч) [2022 г., Боевик, триллер, комедия, BDRip 1080p] Лицензия

Автор Сообщение
rastor ®

Стаж: 14 лет
Сообщений: 5381

Создавать темы rastor ® написал(а)
07-Окт-2022 15:13
Быстрее пулиBullet Train Год выпуска: 2022
Страна: США
Жанр: Боевик, триллер, комедия
Продолжительность: 02:06:32
Перевод: Профессиональный (полное дублирование)
Субтитры: Русские, английские, украинские-Режиссер: Дэвид Литч-В ролях: Сандра Буллок, Брэд Питт, Зази Битц, Джои Кинг, Аарон Тейлор-Джонсон, Логан Лерман, Майкл Шеннон (II), Карен Фукухара, Хироюки Санада, Брайан Тайри Генри-Описание: Пятеро наёмных убийц оказываются в одном сверхскоростном экспрессе. Они узнают, что их миссии связаны, и пытаются выяснить, кто и зачем собрал их вместе.--Качество: BDRip 1080p
Формат: MKV
Видео кодек: XviD
Аудио кодек: AC3
Видео: 1920x804 23.98fps 8000kbps
Аудио:
Аудио Rus: 48kHz 6ch 384Kbps
Аудио Eng: 48kHz 6ch 640Kbps

MediaInfo

Format : Matroska
Format version : Version 4
File size : 7.98 GiB
Duration : 2 h 6 min
Overall bit rate : 9 027 kb/s
Movie name : Bullet Train 2022 from seleZen
Encoded date : UTC 2022-11-11 01:01:33
Writing application : mkvmerge v59.0.0 ('Shining Star') 64-bit
Writing library : libebml v1.4.2 + libmatroska v1.6.4
Video
ID : 1
Format : AVC
Format/Info : Advanced Video Codec
Format profile : High@L4.1
Format settings : CABAC / 5 Ref Frames
Format settings, CABAC : Yes
Format settings, Reference : 5 frames
Codec ID : V_MPEG4/ISO/AVC
Duration : 2 h 6 min
Bit rate : 8 000 kb/s
Width : 1 920 pixels
Height : 804 pixels
Display aspect ratio : 2.40:1
Frame rate mode : Constant
Frame rate : 23.976 (24000/1001) FPS
Color space : YUV
Chroma subsampling : 4:2:0
Bit depth : 8 bits
Scan type : Progressive
Bits/(Pixel*Frame) : 0.216
Stream size : 7.07 GiB (89%)
Writing library : x264 core 164 r3085+55M seleZen t_mod_New [(8 & 10)-bit@all X86_64]
Encoding settings : cabac=1 / ref=5 / deblock=1:-2:-2 / analyse=0x3:0x133 / me=umh / subme=10 / psy=1 / fade_compensate=0.00 / psy_rd=1.01:0.03 / mixed_ref=1 / me_range=32 / chroma_me=1 / trellis=2 / 8x8dct=1 / cqm=0 / deadzone=21,11 / fast_pskip=0 / chroma_qp_offset=-3 / threads=25 / lookahead_threads=4 / sliced_threads=0 / nr=0 / decimate=0 / interlaced=0 / bluray_compat=0 / constrained_intra=0 / fgo=0 / bframes=9 / b_pyramid=2 / b_adapt=2 / b_bias=0 / direct=3 / weightb=1 / open_gop=0 / weightp=2 / keyint=240 / keyint_min=23 / scenecut=40 / intra_refresh=0 / rc_lookahead=60 / rc=2pass / mbtree=0 / bitrate=8000 / ratetol=1.0 / qcomp=0.60 / qpmin=0:0:0 / qpmax=51:51:51 / qpstep=4 / cplxblur=20.0 / qblur=0.5 / vbv_maxrate=50000 / vbv_bufsize=62500 / nal_hrd=none / filler=0 / ip_ratio=1.40 / pb_ratio=1.30 / aq=3:0.80 / aq-sensitivity=10.00 / aq-factor=1.00:1.00:1.00 / aq2=0 / aq3=0
Language : English
Default : Yes
Forced : No
Audio #1
ID : 2
Format : AC-3
Format/Info : Audio Coding 3
Commercial name : Dolby Digital
Codec ID : A_AC3
Duration : 2 h 6 min
Bit rate mode : Constant
Bit rate : 384 kb/s
Channel(s) : 6 channels
Channel layout : L R C LFE Ls Rs
Sampling rate : 48.0 kHz
Frame rate : 31.250 FPS (1536 SPF)
Compression mode : Lossy
Stream size : 347 MiB (4%)
Title : Dub
Language : Russian
Service kind : Complete Main
Default : Yes
Forced : Yes
Audio #2
ID : 3
Format : AC-3
Format/Info : Audio Coding 3
Commercial name : Dolby Digital
Codec ID : A_AC3
Duration : 2 h 6 min
Bit rate mode : Constant
Bit rate : 640 kb/s
Channel(s) : 6 channels
Channel layout : L R C LFE Ls Rs
Sampling rate : 48.0 kHz
Frame rate : 31.250 FPS (1536 SPF)
Compression mode : Lossy
Stream size : 579 MiB (7%)
Title : Original
Language : English
Service kind : Complete Main
Default : No
Forced : No
Text #1
ID : 4
Format : UTF-8
Codec ID : S_TEXT/UTF8
Codec ID/Info : UTF-8 Plain Text
Duration : 2 h 5 min
Bit rate : 4 b/s
Frame rate : 0.014 FPS
Count of elements : 107
Stream size : 4.02 KiB (0%)
Title : Forced
Language : Russian
Default : Yes
Forced : Yes
Text #2
ID : 5
Format : UTF-8
Codec ID : S_TEXT/UTF8
Codec ID/Info : UTF-8 Plain Text
Duration : 2 h 5 min
Bit rate : 84 b/s
Frame rate : 0.216 FPS
Count of elements : 1618
Stream size : 77.3 KiB (0%)
Title : Full
Language : Russian
Default : No
Forced : No
Text #3
ID : 6
Format : UTF-8
Codec ID : S_TEXT/UTF8
Codec ID/Info : UTF-8 Plain Text
Duration : 2 h 5 min
Bit rate : 88 b/s
Frame rate : 0.217 FPS
Count of elements : 1625
Stream size : 81.2 KiB (0%)
Title : Full
Language : Ukrainian
Default : No
Forced : No
Text #4
ID : 7
Format : UTF-8
Codec ID : S_TEXT/UTF8
Codec ID/Info : UTF-8 Plain Text
Duration : 1 h 58 min
Bit rate : 59 b/s
Frame rate : 0.222 FPS
Count of elements : 1582
Stream size : 51.3 KiB (0%)
Title : Full
Language : English
Default : No
Forced : No
Menu
00:00:00.000 : Глава 01
00:07:30.533 : Глава 02
00:14:58.439 : Глава 03
00:21:59.652 : Глава 04
00:30:31.038 : Глава 05
00:38:59.003 : Глава 06
00:47:24.258 : Глава 07
00:54:30.976 : Глава 08
01:01:24.556 : Глава 09
01:09:27.830 : Глава 10
01:15:58.387 : Глава 11
01:22:23.564 : Глава 12
01:29:35.161 : Глава 13
01:36:52.265 : Глава 14
01:43:45.302 : Глава 15
01:53:57.831 : Глава 16
02:00:59.586 : Глава 17


Последний раз редактировалось: rastor (2022-11-11 15:10), всего редактировалось 1 раз
Профиль  ЛС 
swpx

Стаж: 14 лет
Сообщений: 58

Создавать темы swpx написал(а)
22-Окт-2022 00:53 (спустя 14 дней)
Хороший фильм, прям что-то новое)
Профиль  ЛС 
Ььь

Стаж: 14 лет
Сообщений: 23
Откуда: Уфа

Создавать темы Ььь написал(а)
11-Ноя-2022 18:47 (спустя 20 дней)
Смотрел онлайн. Шикарный фильм
Профиль  ЛС 
Показать сообщения:     

Вы не можете начинать темы
Вы не можете отвечать на сообщения
Вы не можете редактировать свои сообщения
Вы не можете удалять свои сообщения
Вы не можете голосовать в опросах
Вы не можете прикреплять файлы к сообщениям
Вы не можете скачивать файлы

Текущее время: 04-Дек 12:53
Часовой пояс: UTC + 5