Дневная смена / Day Shift (Дж.Дж. Перри) [2022 г., Ужасы, боевик, комедия, WEB-DL 1080p] Лицензия

Автор Сообщение
rastor ®

Стаж: 14 лет
Сообщений: 5358

Создавать темы rastor ® написал(а)
08-Сен-2022 15:24
Дневная сменаDay Shift Год выпуска: 2022
Страна: США
Жанр: Ужасы, боевик, комедия
Продолжительность: 01:53:21
Перевод: Профессиональный (полное дублирование)-Режиссер: Дж.Дж. Перри-В ролях: Джейми Фокс, Дэйв Франко, Наташа Лю Бордиццо, Мэган Гуд, Карла Соуса, Стив Хоуи, Скотт Эдкинс, Оливер Мазуччи, Снуп Догг, Эрик Ланж-Описание: Бад Яблонски — трудолюбивый отец, «синий воротничок», который пытается обеспечить хорошую жизнь своей смышленой 8-летней дочери. Он работает чистильщиком бассейнов в Сан-Фернандо Вэлли, но эта приземленная работа — всего лишь прикрытие. Основной доход герою приносит выслеживание и истребление вампиров.--Качество: WEB-DL 1080p
Формат: MKV
Видео кодек: H.264
Аудио кодек: AC3
Видео: 1920х1080 24fps 6381Kbps
Аудио: 48kHz 6ch 640Kbps

MediaInfo

Формат : Matroska
Версия формата : Version 4 / Version 2
Размер файла : 5,67 Гбайт
Продолжительность : 1 ч. 53 м.
Режим общего битрейта : Переменный
Общий поток : 7164 Кбит/сек
Дата кодирования : UTC 2022-09-07 14:00:56
Программа кодирования : mkvmerge v6.1.0 ('Old Devil') built on Mar 4 2013 09:10:42
Библиотека кодирования : libebml v1.3.0 + libmatroska v1.4.0
Видео
Идентификатор : 1
Формат : AVC
Формат/Информация : Advanced Video Codec
Профиль формата : Main@L4.0
Параметр CABAC формата : Да
Параметр ReFrames формата : 3 кадра
Идентификатор кодека : V_MPEG4/ISO/AVC
Продолжительность : 1 ч. 53 м.
Вид битрейта : Переменный
Битрейт : 6381 Кбит/сек
Номинальный битрейт : 7500 Кбит/сек
Максимальный битрейт : 11,2 Мбит/сек
Ширина : 1920 пикселей
Высота : 1080 пикселей
Соотношение сторон : 16:9
Режим частоты кадров : Постоянный
Частота кадров : 24,000 кадра/сек
Цветовое пространство : YUV
Субдискретизация насыщенности : 4:2:0
Битовая глубина : 8 бит
Тип развёртки : Прогрессивная
Бит/(Пиксели*Кадры) : 0.128
Размер потока : 5,05 Гбайт (89%)
Библиотека кодирования : x264 core 148 r2727 7d026e8
Настройки программы : cabac=1 / ref=3 / deblock=1:0:0 / analyse=0x1:0x111 / me=umh / subme=10 / psy=1 / psy_rd=1.00:0.00 / mixed_ref=1 / me_range=24 / chroma_me=1 / trellis=2 / 8x8dct=0 / cqm=0 / deadzone=21,11 / fast_pskip=1 / chroma_qp_offset=-2 / threads=8 / lookahead_threads=1 / sliced_threads=0 / nr=0 / decimate=1 / interlaced=0 / bluray_compat=0 / stitchable=1 / constrained_intra=0 / bframes=2 / b_pyramid=0 / b_adapt=2 / b_bias=0 / direct=3 / weightb=1 / open_gop=0 / weightp=2 / keyint=250 / keyint_min=24 / scenecut=0 / intra_refresh=0 / rc_lookahead=48 / rc=2pass / mbtree=1 / bitrate=7500 / ratetol=1.0 / qcomp=0.50 / qpmin=6 / qpmax=51 / qpstep=4 / cplxblur=20.0 / qblur=0.5 / vbv_maxrate=11250 / vbv_bufsize=15000 / nal_hrd=vbr / filler=0 / ip_ratio=1.40 / aq=1:1.00
Язык : English
Default : Да
Forced : Нет
Аудио
Идентификатор : 2
Формат : AC-3
Формат/Информация : Audio Coding 3
Расширение режима : CM (complete main)
Параметр Endianness формата : Big
Идентификатор кодека : A_AC3
Продолжительность : 1 ч. 53 м.
Вид битрейта : Постоянный
Битрейт : 640 Кбит/сек
Каналы : 6 каналов
Расположение каналов : Front: L C R, Side: L R, LFE
Частота : 48,0 КГц
Битовая глубина : 16 бит
Метод сжатия : С потерями
Размер потока : 519 Мбайт (9%)
Заголовок : Дубляж - Red Head Sound
Язык : Russian
Default : Да
Forced : Нет
Профиль  ЛС 
Показать сообщения:     

Вы не можете начинать темы
Вы не можете отвечать на сообщения
Вы не можете редактировать свои сообщения
Вы не можете удалять свои сообщения
Вы не можете голосовать в опросах
Вы не можете прикреплять файлы к сообщениям
Вы не можете скачивать файлы

Текущее время: 28-Сен 18:22
Часовой пояс: UTC + 5