Тор: Любовь и гром / Thor: Love and Thunder (Тайка Вайтити) [2022 г., Фантастика, фэнтези, боевик, мелодрама, комедия, приключения, музыка, BDRip 1080p] Лицензия

Автор Сообщение
rastor ®

Стаж: 14 лет
Сообщений: 5358

Создавать темы rastor ® написал(а)
08-Сен-2022 10:33
Тор: Любовь и громThor: Love and Thunder Год выпуска: 2022
Страна: США, Австралия
Жанр: Фантастика, фэнтези, боевик, мелодрама, комедия, приключения, музыка
Продолжительность: 01:58:44
Перевод: Профессиональный (полное дублирование)
Субтитры: Русские, английские-Режиссер: Тайка Вайтити-В ролях: Крис Хемсворт, Натали Портман, Крис Прэтт, Тайка Вайтити, Сэм Нилл, Брэдли Купер, Мелисса Маккарти, Кристиан Бэйл, Карен Гиллан, Мэтт Дэймон-Описание: Джейн Фостер берет на себя обязанности Бога-громовержца и становится обладательницей молота Мьёльнира.--Качество: BDRip 1080p
Формат: MKV
Видео кодек: H.264
Аудио кодек: AC3
Видео: 1920x804 23.98fps 7042Kbps
Аудио:
Аудио Rus: 48kHz 6ch 448Kbps
Аудио Eng: 48kHz 6ch 640Kbps

MediaInfo

Format : Matroska
Format version : Version 4
File size : 6.75 GiB
Duration : 1 h 58 min
Overall bit rate : 8 133 kb/s
Movie name : Thor Love and Thunder 2022 from seleZen
Encoded date : UTC 2022-09-23 12:43:55
Writing application : mkvmerge v59.0.0 ('Shining Star') 64-bit
Writing library : libebml v1.4.2 + libmatroska v1.6.4
Video
ID : 1
Format : AVC
Format/Info : Advanced Video Codec
Format profile : High@L4.1
Format settings : CABAC / 5 Ref Frames
Format settings, CABAC : Yes
Format settings, Reference : 5 frames
Codec ID : V_MPEG4/ISO/AVC
Duration : 1 h 58 min
Bit rate : 7 042 kb/s
Width : 1 920 pixels
Height : 804 pixels
Display aspect ratio : 2.40:1
Frame rate mode : Constant
Frame rate : 23.976 (24000/1001) FPS
Color space : YUV
Chroma subsampling : 4:2:0
Bit depth : 8 bits
Scan type : Progressive
Bits/(Pixel*Frame) : 0.190
Stream size : 5.84 GiB (87%)
Title : MTeam
Writing library : x264 core 157 r2938 2b00a84 TnP@MTeam Mod
Encoding settings : cabac=1 / ref=5 / deblock=1:-3:-3 / analyse=0x3:0x133 / me=umh / subme=10 / psy=1 / psy_rd=1.05:0.00 / mixed_ref=1 / me_range=32 / chroma_me=1 / trellis=2 / 8x8dct=1 / cqm=0 / deadzone=21,11 / fast_pskip=0 / chroma_qp_offset=-2 / threads=12 / lookahead_threads=2 / sliced_threads=0 / nr=0 / decimate=0 / interlaced=0 / bluray_compat=0 / constrained_intra=0 / bframes=8 / b_pyramid=2 / b_adapt=2 / b_bias=0 / direct=3 / weightb=1 / open_gop=0 / weightp=2 / keyint=250 / keyint_min=24 / scenecut=40 / intra_refresh=0 / rc_lookahead=250 / rc=crf / mbtree=0 / crf=16.8 / qcomp=0.60 / qpmin=0 / qpmax=69 / qpstep=4 / vbv_maxrate=62500 / vbv_bufsize=78125 / crf_max=0.0 / nal_hrd=none / filler=0 / ip_ratio=1.30 / pb_ratio=1.20 / aq=3:0.80
Language : English
Default : Yes
Forced : No
Color range : Limited
Color primaries : BT.709
Matrix coefficients : BT.709
Audio #1
ID : 2
Format : AC-3
Format/Info : Audio Coding 3
Commercial name : Dolby Digital
Codec ID : A_AC3
Duration : 1 h 58 min
Bit rate mode : Constant
Bit rate : 448 kb/s
Channel(s) : 6 channels
Channel layout : L R C LFE Ls Rs
Sampling rate : 48.0 kHz
Frame rate : 31.250 FPS (1536 SPF)
Compression mode : Lossy
Stream size : 380 MiB (6%)
Title : Dub
Language : Russian
Service kind : Complete Main
Default : Yes
Forced : Yes
Audio #2
ID : 3
Format : AC-3
Format/Info : Audio Coding 3
Commercial name : Dolby Digital
Codec ID : A_AC3
Duration : 1 h 58 min
Bit rate mode : Constant
Bit rate : 640 kb/s
Channel(s) : 6 channels
Channel layout : L R C LFE Ls Rs
Sampling rate : 48.0 kHz
Frame rate : 31.250 FPS (1536 SPF)
Compression mode : Lossy
Stream size : 544 MiB (8%)
Title : Original
Language : English
Service kind : Complete Main
Default : No
Forced : No
Text #1
ID : 4
Format : UTF-8
Codec ID : S_TEXT/UTF8
Codec ID/Info : UTF-8 Plain Text
Duration : 1 h 43 min
Bit rate : 1 b/s
Frame rate : 0.003 FPS
Count of elements : 18
Stream size : 787 Bytes (0%)
Title : Forced
Language : Russian
Default : Yes
Forced : Yes
Text #2
ID : 5
Format : UTF-8
Codec ID : S_TEXT/UTF8
Codec ID/Info : UTF-8 Plain Text
Duration : 1 h 57 min
Bit rate : 82 b/s
Frame rate : 0.229 FPS
Count of elements : 1616
Stream size : 71.5 KiB (0%)
Title : Full [license]
Language : Russian
Default : No
Forced : No
Text #3
ID : 6
Format : UTF-8
Codec ID : S_TEXT/UTF8
Codec ID/Info : UTF-8 Plain Text
Duration : 1 h 57 min
Bit rate : 94 b/s
Frame rate : 0.228 FPS
Count of elements : 1615
Stream size : 81.6 KiB (0%)
Title : Full [Cool Story Blog]
Language : Russian
Default : No
Forced : No
Text #4
ID : 7
Format : UTF-8
Codec ID : S_TEXT/UTF8
Codec ID/Info : UTF-8 Plain Text
Duration : 1 h 57 min
Bit rate : 56 b/s
Frame rate : 0.255 FPS
Count of elements : 1800
Stream size : 48.8 KiB (0%)
Title : Full
Language : English
Default : No
Forced : No
Text #5
ID : 8
Format : UTF-8
Codec ID : S_TEXT/UTF8
Codec ID/Info : UTF-8 Plain Text
Duration : 1 h 58 min
Bit rate : 70 b/s
Frame rate : 0.321 FPS
Count of elements : 2281
Stream size : 61.0 KiB (0%)
Title : SDH
Language : English
Default : No
Forced : No
Menu
00:00:00.000 : Chapter 01
00:06:45.155 : Chapter 02
00:10:11.319 : Chapter 03
00:14:23.780 : Chapter 04
00:18:13.426 : Chapter 05
00:20:59.508 : Chapter 06
00:21:47.806 : Chapter 07
00:27:00.994 : Chapter 08
00:28:16.194 : Chapter 09
00:29:52.249 : Chapter 10
00:31:24.508 : Chapter 11
00:35:15.113 : Chapter 12
00:38:40.443 : Chapter 13
00:45:37.443 : Chapter 14
00:53:04.223 : Chapter 15
01:06:19.392 : Chapter 16
01:14:16.911 : Chapter 17
01:24:35.821 : Chapter 18
01:28:31.181 : Chapter 19
01:30:19.998 : Chapter 20
01:34:17.652 : Chapter 21
01:38:12.678 : Chapter 22
01:44:45.529 : Chapter 23
01:48:17.616 : Chapter 24
01:50:03.430 : Chapter 25
01:51:14.710 : Chapter 26
Профиль  ЛС 
Показать сообщения:     

Вы не можете начинать темы
Вы не можете отвечать на сообщения
Вы не можете редактировать свои сообщения
Вы не можете удалять свои сообщения
Вы не можете голосовать в опросах
Вы не можете прикреплять файлы к сообщениям
Вы не можете скачивать файлы

Текущее время: 28-Сен 18:26
Часовой пояс: UTC + 5