Неубиваемый / Bullet Proof (Джеймс Клэйтон) [2022, Канада, боевик, драма, WEB-DLRip] Dub ((TS)) + Sub Eng + Original Eng

Автор Сообщение
sergoufaVDV ®

Стаж: 6 лет 8 месяцев
Сообщений: 1000
Откуда: Нагаево

Создавать темы sergoufaVDV ® написал(а)
06-Сен-2022 15:10
Неубиваемый / Bullet Proof
Страна: Канада
Жанр: боевик, драма
Год выпуска: 2022
Продолжительность: 01:31:29
Перевод: Профессиональный (полное дублирование) ( TS )
Cубтитры: английские
Доп. информация о субтитрах: softsub (SRT)
Оригинальная аудиодорожка: английский
Режиссер: Джеймс Клэйтон
В ролях: Винни Джонс, Лина Лекомпт, Джеймс Клэйтон, Жанвье Катабарва, Дэнни Мак, Гленн Эннис, Филип Грэйнджер, Купер Бибо, Лори Триоло, Майкл Миттон
Описание: Вор совершает возможно главное ограбление всей своей жизни, уведя деньги психопата-наркобарона Темпла. План проходит без сучка и задоринки, пока Вор не обнаруживает неожиданного пассажира в машине — беременную жену Темпла Мию. Разъяренный Темпл и его правая рука — профессиональный киллер Француз — преследуют Вора по горячим следам. Тот разрывается между желанием залечь на дно и рискованным планом помочь Мии вырваться из жестоких объятий мужа. В любом случае, их единственный шанс остаться в живых — это вдавить педаль газа в пол и уйти от погони.
Сэмпл: http://multi-up.com/1297291
Качество: WEB-DLRip
Формат видео: MKV
Видео: MPEG-4 AVC, 1152x576 (2.0:1), 23.976 fps, ~ 2792 kbps avg
Аудио 1: 48 kHz, AC3 Dolby Digital, 2.0 ch, ~ 224 kbps .Rus
Аудио 2: 2: 48 kHz, AC3 Dolby Digital, 5.1 ch, ~ 384 kbps .Eng

MediaInfo

General
Unique ID : 251163834817245681052524286545238097284 (0xBCF465217BC0BE000AEF66AEFE5EFD84)
Complete name : Bullet.proof.2022.WEB-DLRip.Rus.Dub.DD.2.0.mkv
Format : Matroska
Format version : Version 4 / Version 2
File size : 2.17 GiB
Duration : 1 h 31 min
Overall bit rate : 3 402 kb/s
Encoded date : UTC 2022-09-04 15:50:15
Writing application : mkvmerge v64.0.0 ('Willows') 64-bit
Writing library : libebml v1.4.2 + libmatroska v1.6.4
Video
ID : 1
Format : AVC
Format/Info : Advanced Video Codec
Format profile : High@L4.1
Format settings : CABAC / 16 Ref Frames
Format settings, CABAC : Yes
Format settings, ReFrames : 16 frames
Codec ID : V_MPEG4/ISO/AVC
Duration : 1 h 31 min
Bit rate : 2 792 kb/s
Width : 1 152 pixels
Height : 576 pixels
Display aspect ratio : 2.000
Frame rate mode : Constant
Frame rate : 23.976 (24000/1001) FPS
Color space : YUV
Chroma subsampling : 4:2:0
Bit depth : 8 bits
Scan type : Progressive
Bits/(Pixel*Frame) : 0.175
Stream size : 1.78 GiB (82%)
Writing library : x264 core 148 r2638 7599210
Encoding settings : cabac=1 / ref=16 / deblock=1:0:0 / analyse=0x3:0x113 / me=umh / subme=10 / psy=1 / psy_rd=1.00:0.00 / mixed_ref=1 / me_range=32 / chroma_me=1 / trellis=2 / 8x8dct=1 / cqm=0 / deadzone=21,11 / fast_pskip=1 / chroma_qp_offset=-2 / threads=12 / lookahead_threads=3 / sliced_threads=0 / nr=0 / decimate=1 / interlaced=0 / bluray_compat=0 / constrained_intra=0 / bframes=16 / b_pyramid=2 / b_adapt=2 / b_bias=0 / direct=3 / weightb=1 / open_gop=0 / weightp=2 / keyint=250 / keyint_min=23 / scenecut=40 / intra_refresh=0 / rc_lookahead=60 / rc=2pass / mbtree=1 / bitrate=2792 / ratetol=1.0 / qcomp=0.60 / qpmin=0 / qpmax=69 / qpstep=4 / cplxblur=20.0 / qblur=0.5 / ip_ratio=1.40 / aq=1:1.00
Default : Yes
Forced : No
Color range : Limited
Color primaries : BT.709
Transfer characteristics : BT.709
Matrix coefficients : BT.709
Audio #1
ID : 2
Format : AC-3
Format/Info : Audio Coding 3
Codec ID : A_AC3
Duration : 1 h 31 min
Bit rate mode : Constant
Bit rate : 224 kb/s
Channel(s) : 2 channels
Channel positions : Front: L R
Sampling rate : 48.0 kHz
Frame rate : 31.250 FPS (1536 SPF)
Bit depth : 16 bits
Compression mode : Lossy
Stream size : 147 MiB (7%)
Title : Rus. Dub. TS. AC3. 2.0. 224
Language : Russian
Service kind : Complete Main
Default : Yes
Forced : No
Audio #2
ID : 3
Format : AC-3
Format/Info : Audio Coding 3
Codec ID : A_AC3
Duration : 1 h 31 min
Bit rate mode : Constant
Bit rate : 384 kb/s
Channel(s) : 6 channels
Channel positions : Front: L C R, Side: L R, LFE
Sampling rate : 48.0 kHz
Frame rate : 31.250 FPS (1536 SPF)
Bit depth : 16 bits
Compression mode : Lossy
Stream size : 251 MiB (11%)
Title : Eng. AC3. 5.1. 384.
Language : English
Service kind : Complete Main
Default : No
Forced : No
Text
ID : 4
Format : UTF-8
Codec ID : S_TEXT/UTF8
Codec ID/Info : UTF-8 Plain Text
Duration : 1 h 21 min
Bit rate : 37 b/s
Count of elements : 843
Stream size : 22.5 KiB (0%)
Title : Eng.
Language : English
Default : No
Forced : No
Скриншоты:



Профиль  ЛС 
Показать сообщения:     

Вы не можете начинать темы
Вы не можете отвечать на сообщения
Вы не можете редактировать свои сообщения
Вы не можете удалять свои сообщения
Вы не можете голосовать в опросах
Вы не можете прикреплять файлы к сообщениям
Вы не можете скачивать файлы

Текущее время: 28-Сен 17:50
Часовой пояс: UTC + 5