Элвис / Elvis (Баз Лурман) [2022 г., Биография, драма, музыка, BDRip 1080p] Лицензия

Автор Сообщение
rastor ®

Стаж: 14 лет
Сообщений: 5358

Создавать темы rastor ® написал(а)
13-Авг-2022 11:15
ЭлвисElvis Год выпуска: 2022
Страна: Австралия, США
Жанр: Биография, драма, музыка
Продолжительность: 02:39:15
Перевод:
*Профессиональный (полное дублирование)
*Профессиональный (многоголосый) Jaskier
*Профессиональный (многоголосый) TVShows
Cубтитры: Русские, английские-Режиссер: Баз Лурман-В ролях: Остин Батлер, Коди Смит-Макфи, Том Хэнкс, Дэвид Уинам, Дэйкр Монтгомери, Люк Брейси, Оливия ДеДжонг, Ричард Роксбург, Келвин Харрисон-мл., Ксавьер Сэмюэл, Кейт Малвани, Элизабет Каллен, Наташа Бассетт, Мелина Видлер, Леон Форд, Кристофер Соммерс, Джош МакКонвилл, Гэри Кларк-младший, Хелен Томсон, Чарльз Граундс, Чайдон Джей, Адам Данн, Йола, Гарет Дэвис, Алекс Раду, Элтон Мейсон, Лилли Уоллес, Майк Бингаман, Шэрон Брукс, Кристиан Маккарти, Дэвид Гэннон (II), Асаби Гудман, Патрик Ширер, Джек МакГирр, Сандро Коларелли, Ши Д'Монфор, Лиам Доннелли, Сильвана Аззи Эрас-Описание: История жизни и музыки Элвиса Пресли через призму сложных взаимоотношений с его менеджером, полковником Томом Паркером. Они работали вместе более 20 лет: от начала карьеры Элвиса до его небывалой славы. Сюжет биографического фильма рассказывает историю легендарного Элвиса Пресли. В середине пятидесятых годов Томас Паркер заметил талантливого двадцатилетнего паренька и сразу же предложил ему эксклюзивный контракт. Благодаря таланту музыканта и предприимчивости продюсера карьера Элвиса стремительно пошла в гору. Вскоре он познакомился со своей будущей супругой Присцилой, что тоже отразилось на его творчестве. Каким на самом деле был этот легендарный человек, ставший настоящим королем рок-н-ролла?--Качество: BDRip 1080p
Формат: MKV
Видео кодек: H.264
Аудио кодек: AC3
Видео: 1920x804 23.98fps 15667Kbps
Аудио:
Аудио Дубляж: 48kHz 6ch 448Kbps
Аудио Jaskier : 48kHz 6ch 448Kbps
Аудио TVShows: 48kHz 2ch 192Kbps
Аудио Eng: 48kHz 6ch 640Kbps

MediaInfo

Format : Matroska
Format version : Version 4
File size : 18.9 GiB
Duration : 2 h 39 min
Overall bit rate : 16.9 Mb/s
Movie name : Elvis 2022 from seleZen
Encoded date : UTC 2022-09-02 16:01:42
Writing application : mkvmerge v59.0.0 ('Shining Star') 64-bit
Writing library : libebml v1.4.2 + libmatroska v1.6.4
Video
ID : 1
Format : AVC
Format/Info : Advanced Video Codec
Format profile : High@L4.1
Format settings : CABAC / 5 Ref Frames
Format settings, CABAC : Yes
Format settings, Reference : 5 frames
Codec ID : V_MPEG4/ISO/AVC
Duration : 2 h 39 min
Bit rate : 15.3 Mb/s
Width : 1 920 pixels
Height : 804 pixels
Display aspect ratio : 2.40:1
Frame rate mode : Constant
Frame rate : 23.976 (24000/1001) FPS
Color space : YUV
Chroma subsampling : 4:2:0
Bit depth : 8 bits
Scan type : Progressive
Bits/(Pixel*Frame) : 0.414
Stream size : 17.0 GiB (90%)
Title : MTeam
Writing library : x264 core 157 r2938 2b00a84 TnP@MTeam Mod
Encoding settings : cabac=1 / ref=5 / deblock=1:-3:-3 / analyse=0x3:0x133 / me=umh / subme=10 / psy=1 / psy_rd=1.05:0.00 / mixed_ref=1 / me_range=32 / chroma_me=1 / trellis=2 / 8x8dct=1 / cqm=0 / deadzone=21,11 / fast_pskip=0 / chroma_qp_offset=-2 / threads=12 / lookahead_threads=2 / sliced_threads=0 / nr=0 / decimate=0 / interlaced=0 / bluray_compat=0 / constrained_intra=0 / bframes=8 / b_pyramid=2 / b_adapt=2 / b_bias=0 / direct=3 / weightb=1 / open_gop=0 / weightp=2 / keyint=250 / keyint_min=24 / scenecut=40 / intra_refresh=0 / rc_lookahead=250 / rc=crf / mbtree=0 / crf=16.8 / qcomp=0.60 / qpmin=0 / qpmax=69 / qpstep=4 / vbv_maxrate=62500 / vbv_bufsize=78125 / crf_max=0.0 / nal_hrd=none / filler=0 / ip_ratio=1.30 / pb_ratio=1.20 / aq=3:0.80
Language : English
Default : Yes
Forced : No
Color range : Limited
Color primaries : BT.709
Matrix coefficients : BT.709
Audio #1
ID : 2
Format : AC-3
Format/Info : Audio Coding 3
Commercial name : Dolby Digital
Codec ID : A_AC3
Duration : 2 h 39 min
Bit rate mode : Constant
Bit rate : 384 kb/s
Channel(s) : 6 channels
Channel layout : L R C LFE Ls Rs
Sampling rate : 48.0 kHz
Frame rate : 31.250 FPS (1536 SPF)
Compression mode : Lossy
Stream size : 439 MiB (2%)
Title : Dub
Language : Russian
Service kind : Complete Main
Default : Yes
Forced : Yes
Audio #2
ID : 3
Format : AC-3
Format/Info : Audio Coding 3
Commercial name : Dolby Digital
Codec ID : A_AC3
Duration : 2 h 39 min
Bit rate mode : Constant
Bit rate : 448 kb/s
Channel(s) : 6 channels
Channel layout : L R C LFE Ls Rs
Sampling rate : 48.0 kHz
Frame rate : 31.250 FPS (1536 SPF)
Compression mode : Lossy
Stream size : 510 MiB (3%)
Title : MVO [Jaskier]
Language : Russian
Service kind : Complete Main
Default : No
Forced : No
Audio #3
ID : 4
Format : AC-3
Format/Info : Audio Coding 3
Commercial name : Dolby Digital
Codec ID : A_AC3
Duration : 2 h 39 min
Bit rate mode : Constant
Bit rate : 192 kb/s
Channel(s) : 2 channels
Channel layout : L R
Sampling rate : 48.0 kHz
Frame rate : 31.250 FPS (1536 SPF)
Compression mode : Lossy
Stream size : 219 MiB (1%)
Title : MVO [TVShows]
Language : Russian
Service kind : Complete Main
Default : No
Forced : No
Audio #4
ID : 5
Format : AC-3
Format/Info : Audio Coding 3
Commercial name : Dolby Digital
Codec ID : A_AC3
Duration : 2 h 39 min
Bit rate mode : Constant
Bit rate : 640 kb/s
Channel(s) : 6 channels
Channel layout : L R C LFE Ls Rs
Sampling rate : 48.0 kHz
Frame rate : 31.250 FPS (1536 SPF)
Compression mode : Lossy
Stream size : 729 MiB (4%)
Title : Original
Language : English
Service kind : Complete Main
Default : No
Forced : No
Text #1
ID : 6
Format : UTF-8
Codec ID : S_TEXT/UTF8
Codec ID/Info : UTF-8 Plain Text
Duration : 2 h 29 min
Bit rate : 3 b/s
Frame rate : 0.008 FPS
Count of elements : 73
Stream size : 3.56 KiB (0%)
Title : Forced
Language : Russian
Default : Yes
Forced : Yes
Text #2
ID : 7
Format : UTF-8
Codec ID : S_TEXT/UTF8
Codec ID/Info : UTF-8 Plain Text
Duration : 2 h 38 min
Bit rate : 79 b/s
Frame rate : 0.184 FPS
Count of elements : 1753
Stream size : 92.2 KiB (0%)
Title : Full
Language : Russian
Default : No
Forced : No
Text #3
ID : 8
Format : UTF-8
Codec ID : S_TEXT/UTF8
Codec ID/Info : UTF-8 Plain Text
Duration : 2 h 39 min
Bit rate : 68 b/s
Frame rate : 0.266 FPS
Count of elements : 2537
Stream size : 79.9 KiB (0%)
Title : Full
Language : English
Default : No
Forced : No
Text #4
ID : 9
Format : UTF-8
Codec ID : S_TEXT/UTF8
Codec ID/Info : UTF-8 Plain Text
Duration : 2 h 39 min
Bit rate : 78 b/s
Frame rate : 0.296 FPS
Count of elements : 2827
Stream size : 91.2 KiB (0%)
Title : SDH
Language : English
Default : No
Forced : No
Menu
00:00:00.000 : Chapter 01
00:09:07.046 : Chapter 02
00:14:31.662 : Chapter 03
00:22:06.367 : Chapter 04
00:29:47.369 : Chapter 05
00:38:06.576 : Chapter 06
00:46:21.112 : Chapter 07
00:53:34.044 : Chapter 08
01:03:29.305 : Chapter 09
01:12:05.071 : Chapter 10
01:21:10.616 : Chapter 11
01:30:17.245 : Chapter 12
01:39:19.370 : Chapter 13
01:48:44.977 : Chapter 14
01:57:10.899 : Chapter 15
02:04:46.145 : Chapter 16
02:13:03.934 : Chapter 17
02:22:35.630 : Chapter 18
02:29:55.862 : Chapter 19
Профиль  ЛС 
Показать сообщения:     

Вы не можете начинать темы
Вы не можете отвечать на сообщения
Вы не можете редактировать свои сообщения
Вы не можете удалять свои сообщения
Вы не можете голосовать в опросах
Вы не можете прикреплять файлы к сообщениям
Вы не можете скачивать файлы

Текущее время: 28-Сен 16:36
Часовой пояс: UTC + 5