Чёрный телефон / The Black Phone (Скотт Дерриксон / Scott Derrickson) [2021, США, Ужасы, триллер, WEB-DLRip] MVO (Jaskier) + MVO (TVShows) + Sub Rus, Eng + Original Eng

Автор Сообщение
kirzefilmu ®

Стаж: 3 месяца 20 дней
Сообщений: 12

Создавать темы kirzefilmu ® написал(а)
26-Июл-2022 00:11
Чёрный телефон
The Black Phone

-
Страна: США
Студия: Universal Pictures, Blumhouse Productions, Crooked Highway
Жанр: Ужасы, триллер
Год выпуска: 2021
Продолжительность: 01:44:22
Перевод 1: Профессиональный (многоголосый закадровый) | Jaskier // thx. KinoPub
Перевод 2: Профессиональный (многоголосый закадровый) | TVShows
Субтитры: английские, русские (FOCS)
Оригинальная аудиодорожка: английский
Режиссер: Скотт Дерриксон / Scott Derrickson
В ролях:
Мэйсон Темз, Мадлен Макгроу, Итэн Хоук, Джереми Дэвис, Э. Роджер Митчелл, Трой Радсил, Джеймс Рэнсон, Мигель Казарез Мора, Ребекка Кларк, Дж. Гэйвен Уайлд
Описание:
В 1978 году в Северном Колорадо объявляется серийный детоубийца, маскирующийся под аниматора с детских праздников. Пропадают поочерёдно пятеро детей, после чего жертвой похитителя становится 13-летний Финни Шоу, застенчивый, но умный мальчик, который живёт с отцом-алкоголиком и сестрой Гвен. Финни приходит в себя в звуконепроницаемом подвале, в котором самым стоящим внимания предметом мебели является старинный чёрный телефон на стене. Хотя похититель говорит Финни, что телефон отключён от связи, очень скоро телефон звонит и, к своему ужасу, Финни слышит на том конце провода голоса предыдущих пяти жертв. Общаясь с ними, Финни узнаёт, что при жизни они все успели оставить ему различные лазейки, которые могут помочь ему выбраться и сбежать.
-
|| IMDb || КиноПоиск || Скачать семпл ||
-
Качество видео: WEB-DLRip (исходник: The.Black.Phone.2021.1080p.WEB-DL.DDP5.1.Atmos.x264-CM)
Формат видео: AVI
Видео: 720x304 (2.35:1), 23.976 fps, XviD build 69 ~1947 kbps avg, 0.371 bit/pixel
Аудио 1: 48 kHz, AC3 Dolby Digital, 3/2 (L,C,R,l,r) + LFE ch, ~384 kbps | Многоголосый закадровый (Jaskier)
Аудио 2: 48 kHz, AC3 Dolby Digital, 2/0 (L,R) ch, ~192 kbps | Многоголосый закадровый (TVShows)
Аудио 3: 48 kHz, AC3 Dolby Digital, 3/2 (L,C,R,l,r) + LFE ch, ~384 kbps | Английский
Формат субтитров: softsub (SRT)

MediaInfo

General
Complete name : D:\CHyornyj.telefon.2021.WEB-DLRip\CHyornyj.telefon.2021.WEB-DLRip.avi
Format : AVI
Format/Info : Audio Video Interleave
Format profile : OpenDML
File size : 2.12 GiB
Duration : 1 h 43 min
Overall bit rate : 2 931 kb/s
Movie name : Чёрный телефон / The Black Phone (2021) WEB-DLRip
Director : Скотт Дерриксон / Scott Derrickson
Genre : Ужасы, триллер
Writing application : VirtualDubMod 1.5.10.2 (build 2542/release)
Original source form/Name : Художественный фильм
Copyright : США, Universal Pictures, Blumhouse Productions, Crooked Highway
Comment : Rip by vitolinform
Video
ID : 0
Format : MPEG-4 Visual
Format profile : Advanced Simple@L5
Format settings : BVOP1 / Custom Matrix
Format settings, BVOP : 1
Format settings, QPel : No
Format settings, GMC : No warppoints
Format settings, Matrix : Custom
Codec ID : XVID
Codec ID/Hint : XviD
Duration : 1 h 43 min
Bit rate : 1 947 kb/s
Width : 720 pixels
Height : 304 pixels
Display aspect ratio : 2.35:1
Frame rate : 23.976 (24000/1001) FPS
Color space : YUV
Chroma subsampling : 4:2:0
Bit depth : 8 bits
Scan type : Progressive
Compression mode : Lossy
Bits/(Pixel*Frame) : 0.371
Stream size : 1.41 GiB (66%)
Writing library : XviD 69
Audio #1
ID : 1
Format : AC-3
Format/Info : Audio Coding 3
Commercial name : Dolby Digital
Codec ID : 2000
Duration : 1 h 43 min
Bit rate mode : Constant
Bit rate : 384 kb/s
Channel(s) : 6 channels
Channel layout : L R C LFE Ls Rs
Sampling rate : 48.0 kHz
Frame rate : 31.250 FPS (1536 SPF)
Compression mode : Lossy
Stream size : 284 MiB (13%)
Alignment : Split across interleaves
Interleave, duration : 42 ms (1.00 video frame)
Interleave, preload duration : 500 ms
Title : Russian (MVO, Jaskier)
Service kind : Complete Main
Audio #2
ID : 2
Format : AC-3
Format/Info : Audio Coding 3
Commercial name : Dolby Digital
Codec ID : 2000
Duration : 1 h 43 min
Bit rate mode : Constant
Bit rate : 192 kb/s
Channel(s) : 2 channels
Channel layout : L R
Sampling rate : 48.0 kHz
Frame rate : 31.250 FPS (1536 SPF)
Compression mode : Lossy
Stream size : 142 MiB (7%)
Alignment : Split across interleaves
Interleave, duration : 42 ms (1.00 video frame)
Interleave, preload duration : 500 ms
Title : Russian (MVO, TVShows)
Service kind : Complete Main
Audio #3
ID : 3
Format : AC-3
Format/Info : Audio Coding 3
Commercial name : Dolby Digital
Codec ID : 2000
Duration : 1 h 43 min
Bit rate mode : Constant
Bit rate : 384 kb/s
Channel(s) : 6 channels
Channel layout : L R C LFE Ls Rs
Sampling rate : 48.0 kHz
Frame rate : 31.250 FPS (1536 SPF)
Compression mode : Lossy
Stream size : 284 MiB (13%)
Alignment : Split across interleaves
Interleave, duration : 42 ms (1.00 video frame)
Interleave, preload duration : 500 ms
Title : English
Service kind : Complete Main

Скриншоты

Профиль  ЛС 
Показать сообщения:     

Вы не можете начинать темы
Вы не можете отвечать на сообщения
Вы не можете редактировать свои сообщения
Вы не можете удалять свои сообщения
Вы не можете голосовать в опросах
Вы не можете прикреплять файлы к сообщениям
Вы не можете скачивать файлы

Текущее время: 18-Авг 15:39
Часовой пояс: UTC + 5