Шкатулка дьявола: Пробуждение зла / The Jack in the Box: Awakening (Лоуренс Фаулер / Lawrence Fowler) [2022, Великобритания, Ужасы, BDRip] Dub (Lucky Production)

Автор Сообщение
kirzefilmu ®

Стаж: 3 месяца 20 дней
Сообщений: 12

Создавать темы kirzefilmu ® написал(а)
25-Июл-2022 23:15
Шкатулка дьявола: Пробуждение зла / The Jack in the Box: Awakening
«Открой шкатулку - выпусти дьявола»
- Страна: Великобритания
Жанр: Ужасы
Год выпуска: 2022
Продолжительность: 01:33:12-Перевод: Профессиональный (дублированный)
Lucky Production

Субтитры: Русские (форсированные)-Режиссер: Лоуренс Фаулер / Lawrence Fowler-В ролях: Мэтт МакКлюр, Джеймс Суонтон, Молли Хиндл, Никола Райт, Михаэла Лонгден, Джейсон Фэррис, Виктор Меллорс, Эрина Машате, Николас Энскомб, Мелвин Роулинсон-Описание: Тяжело больная женщина открывает старинную шкатулку и высвобождает демона. Женщина заключает с ним договор: в обмен на своё исцеление она поможет ему заполучить шесть невинных жертв.-
Качество видео: BDRip
Формат видео: AVI
Видео: 720x304 (2.35:1), 24 fps, XviD ~ 1787 Kbps avg, 0.34 bit/pixel
Аудио: AC3, 48 kHz, 6 ch, 384 kbps avg | Lucky Production

MediaInfo

General
Complete name : Downloads\The.Jack.in.the.Box.Awakening.2022.D.BDRip.1.42Gb.MegaPeer\The.Jack.in.the.Box.Awakening.2022.D.BDRip.1.42Gb.MegaPeer.avi
Format : AVI
Format/Info : Audio Video Interleave
File size : 1.42 GiB
Duration : 1 h 33 min
Overall bit rate : 2 180 kb/s
Writing application : VirtualDubModRus 1.5.10.2 (build 2542/release)
Writing library : VirtualDubMod build 2542/release
Video #0
ID : 0
Format : MPEG-4 Visual
Format profile : Advanced Simple@L5
Format settings : BVOP1 / Custom Matrix
Format settings, BVOP : 1
Format settings, QPel : No
Format settings, GMC : No warppoints
Format settings, Matrix : Custom
Codec ID : XVID
Codec ID/Hint : XviD
Duration : 1 h 33 min
Bit rate : 1 787 kb/s
Width : 720 pixels
Height : 304 pixels
Display aspect ratio : 2.35:1
Frame rate : 24.000 FPS
Color space : YUV
Chroma subsampling : 4:2:0
Bit depth : 8 bits
Scan type : Progressive
Compression mode : Lossy
Bits/(Pixel*Frame) : 0.340
Stream size : 1.16 GiB (82%)
Writing library : XviD 73
Audio #1
ID : 1
Format : AC-3
Format/Info : Audio Coding 3
Codec ID : 2000
Duration : 1 h 33 min
Bit rate mode : Constant
Bit rate : 384 kb/s
Channel(s) : 6 channels
Channel positions : Front: L C R, Side: L R, LFE
Sampling rate : 48.0 kHz
Frame rate : 31.250 FPS (1536 SPF)
Bit depth : 16 bits
Compression mode : Lossy
Stream size : 256 MiB (18%)
Alignment : Split accross interleaves
Interleave, duration : 42 ms (1.00 video frame)
Interleave, preload duration : 500 ms
Service kind : Complete Main

Скриншоты

Профиль  ЛС 
Показать сообщения:     

Вы не можете начинать темы
Вы не можете отвечать на сообщения
Вы не можете редактировать свои сообщения
Вы не можете удалять свои сообщения
Вы не можете голосовать в опросах
Вы не можете прикреплять файлы к сообщениям
Вы не можете скачивать файлы

Текущее время: 18-Авг 15:40
Часовой пояс: UTC + 5