Серый человек / The Gray Man (Энтони Руссо / Anthony Russo, Джо Руссо / Joe Russo) [2022, США, боевик, триллер, WEB-DLRip] MVO (Jaskier)

Автор Сообщение
kirzefilmu ®

Стаж: 3 месяца 20 дней
Сообщений: 12

Создавать темы kirzefilmu ® написал(а)
25-Июл-2022 23:11
Серый человек / The Gray Man
Страна: США
Жанр: боевик, триллер
Год выпуска: 2022
Продолжительность: 02:09:02-Перевод: Профессиональный (многоголосый закадровый) | Jaskier
Субтитры: нет
Оригинальная аудиодорожка: нет-Режиссер: Энтони Руссо / Anthony Russo, Джо Руссо / Joe Russo-В ролях: Райан Гослинг, Крис Эванс, Ана де Армас, Билли Боб Торнтон, Джессика Хенвик, Дхануш, Элфри Вудард, Реге-Жан Пейдж, Вагнер Моура, Джулия Баттерз-Описание: В 2003 году ЦРУ вербует отбывающего срок за убийство Курта Джентри, и тот становится так называемым серым человеком — спецагентом под кодовым именем Сьерра Шесть. 18 лет спустя, устранив очередную цель, он узнаёт, что только что убил бывшего Сьераа Четыре, и получает носитель с информацией, представляющей угрозу для секретной программы «Сьерра». Отказавшись передать карту начальству, Шесть сам становится мишенью не только для бывших коллег, но и для элитных наёмников, самый опасный из которых — отморозок Ллойд Хансен.--Качество видео: WEB-DLRip
Формат видео: AVI
Видео: 720x304 (2.37:1), 24.000 fps, XviD build 73 ~1167 kbps avg, 0.22 bit/pixel
Аудио: 48 kHz, AC3 Dolby Digital, 3/2 (L,C,R,l,r) + LFE ch, ~448 kbps-
Сэмпл

-

MediaInfo


Формат                                   : AVI
Формат/Информация                        : Audio Video Interleave
Размер файла                             : 1,46 Гбайт
Продолжительность                        : 2 ч. 9 м.
Общий поток                              : 1 625 Кбит/сек
Название фильма                          : Серый человек_2022_WEB-DLRip
Программа кодирования                    : VirtualDubMod 1.5.10.3 | www.virtualdub-fr.org || (build 2550/release)
Авторское право                          : порошков
Видео
Идентификатор                            : 0
Формат                                   : MPEG-4 Visual
Профиль формата                          : Advanced Simple@L5
Настройки формата                        : BVOP1 / Custom Matrix
Параметр BVOP формата                    : 1
Параметр QPel формата                    : Нет
Параметр GMC формата                     : Без точки перехода
Параметр матрицы формата                 : Выборочная
Идентификатор кодека                     : XVID
Идентификатор кодека/Подсказка           : XviD
Продолжительность                        : 2 ч. 9 м.
Битрейт                                  : 1 168 Кбит/сек
Ширина                                   : 720 пикселей
Высота                                   : 304 пикселя
Соотношение сторон                       : 2,35:1
Частота кадров                           : 24,000 кадра/сек
Цветовое пространство                    : YUV
Субдискретизация насыщенности            : 4:2:0
Битовая глубина                          : 8 бит
Тип развёртки                            : Прогрессивная
Метод сжатия                             : С потерями
Бит/(Пиксели*Кадры)                      : 0.222
Размер потока                            : 1,05 Гбайт (72%)
Библиотека кодирования                   : XviD 73
Аудио
Идентификатор                            : 1
Формат                                   : AC-3
Формат/Информация                        : Audio Coding 3
Коммерческое название                    : Dolby Digital
Идентификатор кодека                     : 2000
Продолжительность                        : 2 ч. 9 м.
Вид битрейта                             : Постоянный
Битрейт                                  : 448 Кбит/сек
Каналы                                   : 6 каналов
Channel layout                           : L R C LFE Ls Rs
Частота                                  : 48,0 КГц
Частота кадров                           : 31,250 кадров/сек (1536 SPF)
Метод сжатия                             : С потерями
Размер потока                            : 413 Мбайт (28%)
Выравнивание                             : Разделение по промежуткам
Продолжительность промежутка             : 42  мс. (1,00 видеокадр)
Время предзагрузки промежутка            : 500  мс.
Service kind                             : Complete Main

Скриншоты

Профиль  ЛС 
Показать сообщения:     

Вы не можете начинать темы
Вы не можете отвечать на сообщения
Вы не можете редактировать свои сообщения
Вы не можете удалять свои сообщения
Вы не можете голосовать в опросах
Вы не можете прикреплять файлы к сообщениям
Вы не можете скачивать файлы

Текущее время: 18-Авг 15:19
Часовой пояс: UTC + 5