Риверданс: Волшебное приключение / Riverdance: The Animated Adventure (Имонн Батлер, Дэйв Розенбаум) [2021 г., Мультфильм, фэнтези, WEB-DL 1080p] Лицензия

Автор Сообщение
rastor ®

Стаж: 13 лет
Сообщений: 5102

Создавать темы rastor ® написал(а)
14-Янв-2022 21:56
Риверданс: Волшебное приключениеRiverdance: The Animated Adventure Год выпуска: 2021
Страна: Великобритания, Ирландия
Жанр: Мультфильм, фэнтези
Продолжительность: 01:33:37
Перевод: Профессиональный (полное дублирование)
Субтитры: Русские, английские-Режиссер: Имонн Батлер, Дэйв Розенбаум-В ролях: Пирс Броснан, Брендан Глисон, Лилли Сингх, Жермен Фаулер, Джон Кэвэна, Полин Маклин, Конор Драм, Сэм Харди, Hannah Herman-Описание: После горькой утраты ирландский мальчик Киган и его испанская подруга Мойя учатся справляться с опасностями и отчаянием, а в этом им помогут танцы и волшебные олени.--Качество: WEB-DL 1080p
Формат: MKV
Видео кодек: H.264
Аудио кодек: AC3
Видео: 1920х1080 24fps 3393Kbps
Аудио:
Аудио Rus: 48kHz 6ch 448Kbps
Аудио Rus: 48kHz 6ch 640Kbps
Аудио Eng: 48kHz 6ch 768Kbps

MediaInfo

Format : Matroska
Format version : Version 4
File size : 3.43 GiB
Duration : 1 h 33 min
Overall bit rate mode : Variable
Overall bit rate : 5 251 kb/s
Encoded date : UTC 2022-01-14 15:49:01
Writing application : mkvmerge v8.3.0 ('Over the Horizon') 32bit
Writing library : libebml v1.3.1 + libmatroska v1.4.2
Video
ID : 1
Format : AVC
Format/Info : Advanced Video Codec
Format profile : Main@L4
Format settings : CABAC / 3 Ref Frames
Format settings, CABAC : Yes
Format settings, Reference frames : 3 frames
Codec ID : V_MPEG4/ISO/AVC
Duration : 1 h 33 min
Bit rate mode : Variable
Bit rate : 3 393 kb/s
Nominal bit rate : 2 566 kb/s
Maximum bit rate : 7 305 kb/s
Width : 1 920 pixels
Height : 1 080 pixels
Display aspect ratio : 16:9
Frame rate mode : Constant
Frame rate : 24.000 FPS
Color space : YUV
Chroma subsampling : 4:2:0
Bit depth : 8 bits
Scan type : Progressive
Bits/(Pixel*Frame) : 0.068
Stream size : 2.22 GiB (65%)
Writing library : x264 core 148 r2727 7d026e8
Encoding settings : cabac=1 / ref=3 / deblock=1:0:0 / analyse=0x1:0x111 / me=umh / subme=10 / psy=1 / psy_rd=1.00:0.00 / mixed_ref=1 / me_range=24 / chroma_me=1 / trellis=2 / 8x8dct=0 / cqm=0 / deadzone=21,11 / fast_pskip=1 / chroma_qp_offset=-2 / threads=8 / lookahead_threads=1 / sliced_threads=0 / nr=0 / decimate=1 / interlaced=0 / bluray_compat=0 / stitchable=1 / constrained_intra=0 / bframes=2 / b_pyramid=0 / b_adapt=2 / b_bias=0 / direct=3 / weightb=1 / open_gop=0 / weightp=2 / keyint=250 / keyint_min=24 / scenecut=0 / intra_refresh=0 / rc_lookahead=48 / rc=2pass / mbtree=1 / bitrate=2566 / ratetol=1.0 / qcomp=0.50 / qpmin=6 / qpmax=51 / qpstep=4 / cplxblur=20.0 / qblur=0.5 / vbv_maxrate=7305 / vbv_bufsize=9740 / nal_hrd=vbr / filler=0 / ip_ratio=1.40 / aq=1:1.00
Language : English
Default : Yes
Forced : No
Audio #1
ID : 2
Format : AC-3
Format/Info : Audio Coding 3
Commercial name : Dolby Digital
Codec ID : A_AC3
Duration : 1 h 33 min
Bit rate mode : Constant
Bit rate : 448 kb/s
Channel(s) : 6 channels
Channel layout : L R C LFE Ls Rs
Sampling rate : 48.0 kHz
Frame rate : 31.250 FPS (1536 SPF)
Compression mode : Lossy
Stream size : 300 MiB (9%)
Title : DUB AC3 (Nevafilm)
Language : Russian
Service kind : Complete Main
Default : Yes
Forced : Yes
Audio #2
ID : 3
Format : E-AC-3
Format/Info : Enhanced AC-3
Commercial name : Dolby Digital Plus
Codec ID : A_EAC3
Duration : 1 h 33 min
Bit rate mode : Constant
Bit rate : 640 kb/s
Channel(s) : 6 channels
Channel layout : L R C LFE Ls Rs
Sampling rate : 48.0 kHz
Frame rate : 31.250 FPS (1536 SPF)
Compression mode : Lossy
Stream size : 429 MiB (12%)
Title : DUB E-AC3 (Nevafilm)
Language : Russian
Service kind : Complete Main
Default : No
Forced : No
Audio #3
ID : 4
Format : E-AC-3 JOC
Format/Info : Enhanced AC-3 with Joint Object Coding
Commercial name : Dolby Digital Plus with Dolby Atmos
Codec ID : A_EAC3
Duration : 1 h 33 min
Bit rate mode : Constant
Bit rate : 768 kb/s
Channel(s) : 6 channels
Channel layout : L R C LFE Ls Rs
Sampling rate : 48.0 kHz
Frame rate : 31.250 FPS (1536 SPF)
Compression mode : Lossy
Stream size : 514 MiB (15%)
Language : English
Service kind : Complete Main
Default : No
Forced : No
Complexity index : 16
Number of dynamic objects : 15
Bed channel count : 1 channel
Bed channel configuration : LFE
Text #1
ID : 5
Format : UTF-8
Codec ID : S_TEXT/UTF8
Codec ID/Info : UTF-8 Plain Text
Duration : 1 h 29 min
Bit rate : 10 b/s
Count of elements : 165
Stream size : 6.98 KiB (0%)
Title : Forced
Language : Russian
Default : Yes
Forced : No
Text #2
ID : 6
Format : UTF-8
Codec ID : S_TEXT/UTF8
Codec ID/Info : UTF-8 Plain Text
Duration : 1 h 29 min
Bit rate : 61 b/s
Count of elements : 973
Stream size : 40.2 KiB (0%)
Title : Full
Language : Russian
Default : No
Forced : No
Text #3
ID : 7
Format : UTF-8
Codec ID : S_TEXT/UTF8
Codec ID/Info : UTF-8 Plain Text
Duration : 1 h 29 min
Bit rate : 52 b/s
Count of elements : 834
Stream size : 34.8 KiB (0%)
Language : Ukrainian
Default : No
Forced : No
Text #4
ID : 8
Format : UTF-8
Codec ID : S_TEXT/UTF8
Codec ID/Info : UTF-8 Plain Text
Duration : 1 h 26 min
Bit rate : 54 b/s
Count of elements : 1507
Stream size : 34.2 KiB (0%)
Title : SDH
Language : English
Default : No
Forced : No
Профиль  ЛС 
Показать сообщения:     

Вы не можете начинать темы
Вы не можете отвечать на сообщения
Вы не можете редактировать свои сообщения
Вы не можете удалять свои сообщения
Вы не можете голосовать в опросах
Вы не можете прикреплять файлы к сообщениям
Вы не можете скачивать файлы

Текущее время: 22-Янв 09:30
Часовой пояс: UTC + 5