Монстры на каникулах: Трансформания / Hotel Transylvania: Transformania (Дерек Драймон, Дженнифер Клуска) [2022 г., Мультфильм, ужасы, фэнтези, комедия, приключения, семейный, WEB-DL 1080p] Лицензия

Автор Сообщение
rastor ®

Стаж: 13 лет
Сообщений: 5102

Создавать темы rastor ® написал(а)
14-Янв-2022 14:31
Монстры на каникулах: ТрансформанияHotel Transylvania: Transformania Год выпуска: 2022
Страна: США
Жанр: Мультфильм, ужасы, фэнтези, комедия, приключения, семейный
Продолжительность: 01:27:32
Перевод: Профессиональный (полное дублирование)
Субтитры: Русские, украинские, английские-Режиссер: Дерек Драймон, Дженнифер Клуска-В ролях: Брайан Халл, Энди Сэмберг, Селена Гомес, Кэтрин Хан, Стив Бушеми, Дэвид Спейд, Кигэн-Майкл Ки, Эшер Блинкофф, Брэд Эбрелл, Фрэн Дрешер-Описание: Все смешалось в отеле «Трансильвания»: таинственное изобретение Ван Хельсинга, «монстрифицирующий луч», ломается и случайно превращает Дракулу и его приятелей в людей, а Джонни — наоборот, в монстра. Лишенные своих способностей и привычного облика Драк с друзьями и Джонни, с неожиданным удовольствием раскрывающий свою монстрическую сущность, отправляются в кругосветное путешествие на поиски средства от трансформании. И, конечно, им не обойтись без помощи Мэвис, пока не стало слишком поздно и они не свели друг друга с ума.--Качество: WEB-DL 1080p
Формат: MKV
Видео кодек: H.264
Аудио кодек: AC3
Видео: 1920x1040, 23.98fps 10000Kbps
Аудио:
Аудио Rus: 48kHz 6ch 640Kbps
Аудио Rus: 48kHz 6ch 640Kbps
Аудио Eng: 48kHz 6ch 640Kbps

MediaInfo

Format : Matroska
Format version : Version 4
File size : 6.51 GiB
Duration : 1 h 27 min
Overall bit rate : 10.6 Mb/s
Movie name : Hotel Transylvania 4 Transformania 2022 from seleZen
Encoded date : UTC 2022-01-14 02:30:08
Writing application : mkvmerge v59.0.0 ('Shining Star') 64-bit
Writing library : libebml v1.4.2 + libmatroska v1.6.4
Video
ID : 1
Format : AVC
Format/Info : Advanced Video Codec
Format profile : High@L4
Format settings : CABAC / 4 Ref Frames
Format settings, CABAC : Yes
Format settings, Reference : 4 frames
Codec ID : V_MPEG4/ISO/AVC
Duration : 1 h 27 min
Bit rate mode : Constant
Bit rate : 8 720 kb/s
Nominal bit rate : 10 000 kb/s
Width : 1 920 pixels
Height : 1 040 pixels
Display aspect ratio : 1.85:1
Frame rate mode : Constant
Frame rate : 23.976 (24000/1001) FPS
Color space : YUV
Chroma subsampling : 4:2:0
Bit depth : 8 bits
Scan type : Progressive
Bits/(Pixel*Frame) : 0.182
Stream size : 5.33 GiB (82%)
Language : English
Default : Yes
Forced : No
Color range : Limited
Color primaries : BT.709
Transfer characteristics : BT.709
Matrix coefficients : BT.709
Audio #1
ID : 2
Format : E-AC-3
Format/Info : Enhanced AC-3
Commercial name : Dolby Digital Plus
Codec ID : A_EAC3
Duration : 1 h 27 min
Bit rate mode : Constant
Bit rate : 640 kb/s
Channel(s) : 6 channels
Channel layout : L R C LFE Ls Rs
Sampling rate : 48.0 kHz
Frame rate : 31.250 FPS (1536 SPF)
Compression mode : Lossy
Stream size : 401 MiB (6%)
Title : Dub
Language : Russian
Service kind : Complete Main
Default : Yes
Forced : Yes
Audio #2
ID : 3
Format : AC-3
Format/Info : Audio Coding 3
Commercial name : Dolby Digital
Codec ID : A_AC3
Duration : 1 h 27 min
Bit rate mode : Constant
Bit rate : 640 kb/s
Channel(s) : 6 channels
Channel layout : L R C LFE Ls Rs
Sampling rate : 48.0 kHz
Frame rate : 31.250 FPS (1536 SPF)
Compression mode : Lossy
Stream size : 401 MiB (6%)
Title : Dub
Language : Russian
Service kind : Complete Main
Default : No
Forced : No
Audio #3
ID : 4
Format : E-AC-3
Format/Info : Enhanced AC-3
Commercial name : Dolby Digital Plus
Codec ID : A_EAC3
Duration : 1 h 27 min
Bit rate mode : Constant
Bit rate : 640 kb/s
Channel(s) : 6 channels
Channel layout : L R C LFE Ls Rs
Sampling rate : 48.0 kHz
Frame rate : 31.250 FPS (1536 SPF)
Compression mode : Lossy
Stream size : 401 MiB (6%)
Title : Original
Language : English
Service kind : Complete Main
Default : No
Forced : No
Text #1
ID : 5
Format : UTF-8
Codec ID : S_TEXT/UTF8
Codec ID/Info : UTF-8 Plain Text
Duration : 1 h 25 min
Bit rate : 1 b/s
Count of elements : 20
Stream size : 787 Bytes (0%)
Title : Forced
Language : Russian
Default : Yes
Forced : Yes
Text #2
ID : 6
Format : UTF-8
Codec ID : S_TEXT/UTF8
Codec ID/Info : UTF-8 Plain Text
Duration : 1 h 26 min
Bit rate : 74 b/s
Count of elements : 1030
Stream size : 47.4 KiB (0%)
Title : Full
Language : Russian
Default : No
Forced : No
Text #3
ID : 7
Format : UTF-8
Codec ID : S_TEXT/UTF8
Codec ID/Info : UTF-8 Plain Text
Duration : 1 h 26 min
Bit rate : 73 b/s
Count of elements : 1029
Stream size : 46.7 KiB (0%)
Title : Full
Language : Ukrainian
Default : No
Forced : No
Text #4
ID : 8
Format : UTF-8
Codec ID : S_TEXT/UTF8
Codec ID/Info : UTF-8 Plain Text
Duration : 1 h 27 min
Bit rate : 61 b/s
Count of elements : 1749
Stream size : 39.1 KiB (0%)
Title : Full
Language : English
Default : No
Forced : No
Text #5
ID : 9
Format : UTF-8
Codec ID : S_TEXT/UTF8
Codec ID/Info : UTF-8 Plain Text
Duration : 1 h 27 min
Bit rate : 68 b/s
Count of elements : 1878
Stream size : 43.6 KiB (0%)
Title : SDH
Language : English
Default : No
Forced : No
Menu
00:00:00.000 : Amazon Original
00:00:06.000 : Studio Logo
00:00:39.000 : Scene 3
00:06:19.000 : Scene 4
00:09:44.000 : Scene 5
00:15:49.000 : Scene 6
00:18:10.000 : Scene 7
00:22:49.000 : Scene 8
00:26:39.000 : Scene 9
00:28:54.000 : Scene 10
00:31:21.000 : Scene 11
00:33:01.000 : Scene 12
00:34:11.000 : Scene 13
00:36:28.000 : Scene 14
00:37:07.000 : Scene 15
00:38:13.000 : Scene 16
00:40:54.000 : Scene 17
00:45:33.000 : Scene 18
00:47:15.000 : Scene 19
00:48:32.000 : Scene 20
00:51:44.000 : Scene 21
00:57:04.000 : Scene 22
01:05:33.000 : Scene 23
01:13:43.000 : Scene 24
01:17:02.000 : Scene 25
01:17:48.000 : End Credits
Профиль  ЛС 
Показать сообщения:     

Вы не можете начинать темы
Вы не можете отвечать на сообщения
Вы не можете редактировать свои сообщения
Вы не можете удалять свои сообщения
Вы не можете голосовать в опросах
Вы не можете прикреплять файлы к сообщениям
Вы не можете скачивать файлы

Текущее время: 22-Янв 09:34
Часовой пояс: UTC + 5