Воспоминания / Reminiscence (Лиза Джой) [2021 г., Фантастика, триллер, мелодрама, детектив, WEB-DL 1080p] Лицензия

Автор Сообщение
rastor ®

Стаж: 13 лет
Сообщений: 4962

Создавать темы rastor ® написал(а)
18-Сен-2021 08:29
ВоспоминанияReminiscence Год выпуска: 2021
Страна: США
Жанр: Фантастика, триллер, мелодрама, детектив
Продолжительность: 01:55:52
Перевод: Профессиональный (полное дублирование)
Субтитры: Русские, английские-Режиссер: Лиза Джой-В ролях: Хью Джекман, Ребекка Фергюсон, Тэнди Ньютон, Дэниэл Ву, Анджела Сарафян, Натали Мартинес, Марина Де Тавира, Клифф Кертис-Описание: Майами, недалекое будущее. Из-за глобального потепления город практически погружен под воду. Частный детектив Ник Баннистер помогает клиентам вернуть важные воспоминания, чтобы они могли заново пережить прошлое. Однажды к нему обращается женщина, чья проблема проста — она не может вспомнить, где потеряла ключи. Между героями вспыхивает роман, но спустя время женщина бесследно исчезает. Чтобы найти любимую, Баннистеру нужно разобраться в ее памяти и понять, кем она была на самом деле.--Качество: WEB-DL 1080p
Формат: MKV
Видео кодек: H.264
Аудио кодек: AC3
Видео: 1920x816 23.98fps 8223Kbps
Аудио:
Аудио Rus: 48kHz 6ch 384Kbps
Аудио Eng: 48kHz 6ch 768Kbps

MediaInfo

Format : Matroska
Format version : Version 4
File size : 7.59 GiB
Duration : 1 h 56 min
Overall bit rate mode : Variable
Overall bit rate : 9 338 kb/s
Movie name : Reminiscence 2021 from seleZen
Encoded date : UTC 2021-09-17 16:49:15
Writing application : mkvmerge v59.0.0 ('Shining Star') 64-bit
Writing library : libebml v1.4.2 + libmatroska v1.6.4
Video
ID : 1
Format : AVC
Format/Info : Advanced Video Codec
Format profile : High@L4
Format settings : CABAC / 4 Ref Frames
Format settings, CABAC : Yes
Format settings, Reference : 4 frames
Codec ID : V_MPEG4/ISO/AVC
Duration : 1 h 55 min
Bit rate mode : Variable
Bit rate : 8 223 kb/s
Maximum bit rate : 12.4 Mb/s
Width : 1 920 pixels
Height : 816 pixels
Display aspect ratio : 2.35:1
Frame rate mode : Constant
Frame rate : 23.976 (24000/1001) FPS
Color space : YUV
Chroma subsampling : 4:2:0
Bit depth : 8 bits
Scan type : Progressive
Bits/(Pixel*Frame) : 0.219
Stream size : 6.66 GiB (88%)
Language : English
Default : Yes
Forced : No
Color range : Limited
Color primaries : BT.709
Transfer characteristics : BT.709
Matrix coefficients : BT.709
Audio #1
ID : 2
Format : AC-3
Format/Info : Audio Coding 3
Commercial name : Dolby Digital
Codec ID : A_AC3
Duration : 1 h 56 min
Bit rate mode : Constant
Bit rate : 384 kb/s
Channel(s) : 6 channels
Channel layout : L R C LFE Ls Rs
Sampling rate : 48.0 kHz
Frame rate : 31.250 FPS (1536 SPF)
Compression mode : Lossy
Delay relative to video : 28 ms
Stream size : 320 MiB (4%)
Title : Dub
Language : Russian
Service kind : Complete Main
Default : Yes
Forced : Yes
Audio #2
ID : 3
Format : E-AC-3 JOC
Format/Info : Enhanced AC-3 with Joint Object Coding
Commercial name : Dolby Digital Plus with Dolby Atmos
Codec ID : A_EAC3
Duration : 1 h 55 min
Bit rate mode : Constant
Bit rate : 768 kb/s
Channel(s) : 6 channels
Channel layout : L R C LFE Ls Rs
Sampling rate : 48.0 kHz
Frame rate : 31.250 FPS (1536 SPF)
Compression mode : Lossy
Delay relative to video : 28 ms
Stream size : 637 MiB (8%)
Title : Original
Language : English
Service kind : Complete Main
Default : No
Forced : No
Complexity index : 16
Number of dynamic objects : 15
Bed channel count : 1 channel
Bed channel configuration : LFE
Text #1
ID : 4
Format : UTF-8
Codec ID : S_TEXT/UTF8
Codec ID/Info : UTF-8 Plain Text
Duration : 1 h 50 min
Bit rate : 2 b/s
Count of elements : 45
Stream size : 1.68 KiB (0%)
Title : Forced
Language : Russian
Default : Yes
Forced : Yes
Text #2
ID : 5
Format : UTF-8
Codec ID : S_TEXT/UTF8
Codec ID/Info : UTF-8 Plain Text
Duration : 1 h 53 min
Bit rate : 92 b/s
Count of elements : 1493
Stream size : 77.1 KiB (0%)
Title : Full
Language : Russian
Default : No
Forced : No
Text #3
ID : 6
Format : UTF-8
Codec ID : S_TEXT/UTF8
Codec ID/Info : UTF-8 Plain Text
Duration : 1 h 50 min
Bit rate : 62 b/s
Count of elements : 1623
Stream size : 51.1 KiB (0%)
Language : English
Default : No
Forced : No
Профиль  ЛС 
Kadae

Стаж: 13 лет
Сообщений: 22

Создавать темы Kadae написал(а)
23-Сен-2021 22:45 (спустя 5 дней)
Только ради попы Фергюссон.
Профиль  ЛС 
Показать сообщения:     

Вы не можете начинать темы
Вы не можете отвечать на сообщения
Вы не можете редактировать свои сообщения
Вы не можете удалять свои сообщения
Вы не можете голосовать в опросах
Вы не можете прикреплять файлы к сообщениям
Вы не можете скачивать файлы

Текущее время: 20-Окт 21:51
Часовой пояс: UTC + 5