Пила: Спираль / Spiral: From the Book of Saw (Даррен Линн Боусман) [2021, Канада, США, детектив, триллер, ужасы, WEB-DLRip-AVC] MVO (HDRezka Studio) + MVO (Pazl Voice) + Sub Rus + Original Eng

Автор Сообщение
sergoufaVDV ®

Стаж: 5 лет 5 месяцев
Сообщений: 959
Откуда: Нагаево

Создавать темы sergoufaVDV ® написал(а)
10-Июн-2021 22:32
Пила: Спираль / Spiral: From the Book of Saw
Страна: Канада, США
Жанр: детектив, триллер, ужасы
Год выпуска: 2021
Продолжительность: 01:33:05
Перевод 1: Любительский (многоголосый закадровый) HDRezka Studio
Перевод 2: Любительский (многоголосый закадровый) Pazl Voice
Cубтитры: русские, английские
Оригинальная аудиодорожка: английский
Режиссер: Даррен Линн Боусман
В ролях: Крис Рок, Макс Мингелла, Марисоль Николс, Сэмюэл Л. Джексон, Зои Палмер, Дженелл Уильямс, Ричард Зэппери, Дэн Петрониевич, Патрик МакМанус, Али Джонсон
Описание: Импульсивный детектив полиции Нью-Йорка Зик Бэнкс всю жизнь пытается вырваться из тени своего отца, прославленного ветерана правоохранительных органов. Однажды Бэнксу и его новому напарнику поручают расследование серии жестоких убийств, которые странным образом напоминают преступления прошлых лет. Так они оказываются в эпицентре зловещей игры, и цена проигрыша в ней — человеческая жизнь.
Сэмпл: http://multi-up.com/1279897
Качество: WEB-DLRip-AVC
Формат видео: MKV
Видео: MPEG-4 AVC, 1000x416 (2.40:1), 23.976 fps, ~1420 kbps avg, 0.142 bit/pixel
Аудио 1: 48 kHz, AC3 Dolby Digital, 3/2 (L,C,R,l,r) + LFE ch, ~448 kbps avg HDRezka Studio
Аудио 2: 48 kHz, AC3 Dolby Digital, 3/2 (L,C,R,l,r) + LFE ch, ~448 kbps avg Pazl Voice
Аудио 3: 48 kHz, AC3 Dolby Digital, 3/2 (L,C,R,l,r) + LFE ch, ~448 kbps avg Original

MediaInfo

Complete name               : F:\Пила - Спираль (2021) WEB-DLRip-AVC.ivanes .mkv
Format : Matroska
Format version : Version 2
File size : 1.83 GiB
Duration : 1 h 33 min
Overall bit rate : 2 820 kb/s
Movie name : Пила: Спираль
Encoded date : UTC 2021-06-08 16:54:10
Writing application : mkvmerge v4.4.0 ('Die Wiederkehr') сборка от Jan 3 2011 21:40:45
Writing library : libebml v1.0.0 + libmatroska v1.0.0
Cover : Yes
Attachments : cover.jpg
Video
ID : 1
Format : AVC
Format/Info : Advanced Video Codec
Format profile : High@L4.1
Format settings : CABAC / 11 Ref Frames
Format settings, CABAC : Yes
Format settings, Reference : 11 frames
Codec ID : V_MPEG4/ISO/AVC
Duration : 1 h 33 min
Bit rate : 1 420 kb/s
Width : 1 000 pixels
Height : 416 pixels
Display aspect ratio : 2.40:1
Frame rate mode : Constant
Frame rate : 23.976 (24000/1001) FPS
Color space : YUV
Chroma subsampling : 4:2:0
Bit depth : 8 bits
Scan type : Progressive
Bits/(Pixel*Frame) : 0.142
Stream size : 946 MiB (50%)
Title : Rip by ivanes
Writing library : x264 core 163 r3059+79M f2a8266 t_mod_test_xavc [(8 & 10)-bit@all X86_64]
Encoding settings : cabac=1 / ref=11 / deblock=1:-2:-2 / analyse=0x3:0x113 / me=umh / subme=10 / psy=1 / fade_compensate=0.00 / psy_rd=1.00:0.00 / mixed_ref=1 / me_range=32 / chroma_me=1 / trellis=2 / 8x8dct=1 / cqm=0 / deadzone=21,11 / fast_pskip=0 / chroma_qp_offset=-2 / threads=16 / lookahead_threads=3 / sliced_threads=0 / nr=0 / decimate=1 / interlaced=0 / bluray_compat=0 / constrained_intra=0 / fgo=0 / bframes=12 / b_pyramid=2 / b_adapt=2 / b_bias=0 / direct=1 / weightb=1 / open_gop=0 / weightp=2 / keyint=240 / keyint_min=23 / scenecut=40 / intra_refresh=0 / rc_lookahead=60 / rc=crf / mbtree=1 / crf=19.1000 / qcomp=0.65 / qpmin=0:0:0 / qpmax=69:69:69 / qpstep=4 / vbv_maxrate=50000 / vbv_bufsize=62500 / crf_max=0.0 / nal_hrd=none / filler=0 / ip_ratio=1.40 / aq=1:1.00 / aq-sensitivity=10.00 / aq-factor=1.00:1.00:1.00 / aq2=0 / aq3=0
Default : Yes
Forced : No
Statistics Tags Issue : mkvmerge v42.0.0 ('Overtime') 64-bit 2021-06-08 14:19:00 / mkvmerge v4.4.0 ('Die Wiederkehr') сборка от Jan 3 2011 21:40:45 2021-06-08 16:54:10
FromStats_BitRate : 1471889
FromStats_Duration : 01:33:05.664000000
FromStats_FrameCount : 133922
FromStats_StreamSize : 1027685172
Audio #1
ID : 2
Format : AC-3
Format/Info : Audio Coding 3
Commercial name : Dolby Digital
Codec ID : A_AC3
Duration : 1 h 33 min
Bit rate mode : Constant
Bit rate : 448 kb/s
Channel(s) : 6 channels
Channel layout : L R C LFE Ls Rs
Sampling rate : 48.0 kHz
Frame rate : 31.250 FPS (1536 SPF)
Compression mode : Lossy
Stream size : 298 MiB (16%)
Title : HDRezka Studio
Language : Russian
Service kind : Complete Main
Default : Yes
Forced : No
Audio #2
ID : 3
Format : AC-3
Format/Info : Audio Coding 3
Commercial name : Dolby Digital
Codec ID : A_AC3
Duration : 1 h 33 min
Bit rate mode : Constant
Bit rate : 448 kb/s
Channel(s) : 6 channels
Channel layout : L R C LFE Ls Rs
Sampling rate : 48.0 kHz
Frame rate : 31.250 FPS (1536 SPF)
Compression mode : Lossy
Stream size : 298 MiB (16%)
Title : Pazl Voice
Language : Russian
Service kind : Complete Main
Default : No
Forced : No
Audio #3
ID : 4
Format : AC-3
Format/Info : Audio Coding 3
Commercial name : Dolby Digital
Codec ID : A_AC3
Duration : 1 h 33 min
Bit rate mode : Constant
Bit rate : 448 kb/s
Channel(s) : 6 channels
Channel layout : L R C LFE Ls Rs
Sampling rate : 48.0 kHz
Frame rate : 31.250 FPS (1536 SPF)
Compression mode : Lossy
Stream size : 298 MiB (16%)
Title : Original
Language : English
Service kind : Complete Main
Default : No
Forced : No
Text #1
ID : 5
Format : UTF-8
Codec ID : S_TEXT/UTF8
Codec ID/Info : UTF-8 Plain Text
Title : Full
Language : Russian
Default : No
Forced : No
Text #2
ID : 6
Format : UTF-8
Codec ID : S_TEXT/UTF8
Codec ID/Info : UTF-8 Plain Text
Title : Full
Language : English
Default : No
Forced : No
Скриншоты:


Профиль  ЛС 
Показать сообщения:     

Вы не можете начинать темы
Вы не можете отвечать на сообщения
Вы не можете редактировать свои сообщения
Вы не можете удалять свои сообщения
Вы не можете голосовать в опросах
Вы не можете прикреплять файлы к сообщениям
Вы не можете скачивать файлы

Текущее время: 14-Июн 23:34
Часовой пояс: UTC + 5