Никто / Nobody (Илья Найшуллер) [2021 г., Боевик, триллер, криминал, WEB-DL 1080p] Лицензия

Автор Сообщение
rastor ®

Стаж: 12 лет
Сообщений: 5232

Создавать темы rastor ® написал(а)
16-Апр-2021 08:40
НиктоNobody Год выпуска: 2021
Страна: США
Жанр: Боевик, триллер, криминал
Продолжительность: 01:31:40
Перевод:
*Профессиональный (полное дублирование)
*Профессиональный (многоголосый) HDRezka Studio
*Авторский (одноголосый) Есарев
*Авторский (одноголосый) Яроцкий
Cубтитры: Русские, английские-Режиссер: Илья Найшуллер-В ролях: Боб Оденкёрк, Алексей Серебряков, Конни Нильсен, Кристофер Ллойд, Майкл Айронсайд, Колин Сэлмон, RZA, Билли Маклеллан, Арая Менгеша, Гейдж Манро-Описание: Непримечательный и незаметный человек живёт обычной жизнью, пока однажды, спасая женщину от нападения бандитов, не отправляет одного из хулиганов в больницу. Лишь позже он узнаёт, что это был брат влиятельного гангстера, который теперь жаждет мести.- -Качество: WEB-DL 1080p
Формат: MKV
Видео кодек: H.264
Аудио кодек: AC3
Видео: 1920x800 23.98fps 9368Kbps
Аудио:
Аудио Дубляж: 48kHz 6ch 384Kbps
Аудио MVO: 48kHz 6ch 448Kbps
Аудио Есарев: 48kHz 6ch 448Kbps
Аудио Яроцкий: 48kHz 6ch 448Kbps
Аудио Eng: 48kHz 6ch 640Kbps

MediaInfo

Format : Matroska
Format version : Version 4
File size : 7.80 GiB
Duration : 1 h 31 min
Overall bit rate : 12.2 Mb/s
Movie name : Nobody 2021 from seleZen
Encoded date : UTC 2021-06-09 16:07:43
Writing application : mkvmerge v55.0.0 ('Waiting For Space') 64-bit
Writing library : libebml v1.4.2 + libmatroska v1.6.4
Video
ID : 1
Format : AVC
Format/Info : Advanced Video Codec
Format profile : High@L4
Format settings : CABAC / 4 Ref Frames
Format settings, CABAC : Yes
Format settings, Reference : 4 frames
Codec ID : V_MPEG4/ISO/AVC
Duration : 1 h 31 min
Bit rate mode : Constant
Bit rate : 9 368 kb/s
Nominal bit rate : 10 000 kb/s
Width : 1 920 pixels
Height : 800 pixels
Display aspect ratio : 2.40:1
Frame rate mode : Constant
Frame rate : 23.976 (24000/1001) FPS
Color space : YUV
Chroma subsampling : 4:2:0
Bit depth : 8 bits
Scan type : Progressive
Bits/(Pixel*Frame) : 0.254
Stream size : 6.00 GiB (77%)
Language : English
Default : Yes
Forced : No
Color range : Limited
Color primaries : BT.709
Transfer characteristics : BT.709
Matrix coefficients : BT.709
Audio #1
ID : 2
Format : AC-3
Format/Info : Audio Coding 3
Commercial name : Dolby Digital
Codec ID : A_AC3
Duration : 1 h 31 min
Bit rate mode : Constant
Bit rate : 384 kb/s
Channel(s) : 6 channels
Channel layout : L R C LFE Ls Rs
Sampling rate : 48.0 kHz
Frame rate : 31.250 FPS (1536 SPF)
Compression mode : Lossy
Stream size : 252 MiB (3%)
Title : Dub
Language : Russian
Service kind : Complete Main
Default : Yes
Forced : Yes
Audio #2
ID : 3
Format : AC-3
Format/Info : Audio Coding 3
Commercial name : Dolby Digital
Codec ID : A_AC3
Duration : 1 h 31 min
Bit rate mode : Constant
Bit rate : 448 kb/s
Channel(s) : 6 channels
Channel layout : L R C LFE Ls Rs
Sampling rate : 48.0 kHz
Frame rate : 31.250 FPS (1536 SPF)
Compression mode : Lossy
Stream size : 294 MiB (4%)
Title : AVO [Есарев] - Uncensored
Language : Russian
Service kind : Complete Main
Default : No
Forced : No
Audio #3
ID : 4
Format : AC-3
Format/Info : Audio Coding 3
Commercial name : Dolby Digital
Codec ID : A_AC3
Duration : 1 h 31 min
Bit rate mode : Constant
Bit rate : 448 kb/s
Channel(s) : 6 channels
Channel layout : L R C LFE Ls Rs
Sampling rate : 48.0 kHz
Frame rate : 31.250 FPS (1536 SPF)
Compression mode : Lossy
Stream size : 294 MiB (4%)
Title : AVO [Яроцкий] - Uncensored
Language : Russian
Service kind : Complete Main
Default : No
Forced : No
Audio #4
ID : 5
Format : AC-3
Format/Info : Audio Coding 3
Commercial name : Dolby Digital
Codec ID : A_AC3
Duration : 1 h 31 min
Bit rate mode : Constant
Bit rate : 448 kb/s
Channel(s) : 6 channels
Channel layout : L R C LFE Ls Rs
Sampling rate : 48.0 kHz
Frame rate : 31.250 FPS (1536 SPF)
Compression mode : Lossy
Stream size : 294 MiB (4%)
Title : MVO [HDRezka Studio (Censored)]
Language : Russian
Service kind : Complete Main
Default : No
Forced : No
Audio #5
ID : 6
Format : AC-3
Format/Info : Audio Coding 3
Commercial name : Dolby Digital
Codec ID : A_AC3
Duration : 1 h 31 min
Bit rate mode : Constant
Bit rate : 448 kb/s
Channel(s) : 6 channels
Channel layout : L R C LFE Ls Rs
Sampling rate : 48.0 kHz
Frame rate : 31.250 FPS (1536 SPF)
Compression mode : Lossy
Stream size : 294 MiB (4%)
Title : MVO [HDRezka Studio (Uncensored)]
Language : Russian
Service kind : Complete Main
Default : No
Forced : No
Audio #6
ID : 7
Format : E-AC-3
Format/Info : Enhanced AC-3
Commercial name : Dolby Digital Plus
Codec ID : A_EAC3
Duration : 1 h 31 min
Bit rate mode : Constant
Bit rate : 640 kb/s
Channel(s) : 6 channels
Channel layout : L R C LFE Ls Rs
Sampling rate : 48.0 kHz
Frame rate : 31.250 FPS (1536 SPF)
Compression mode : Lossy
Stream size : 420 MiB (5%)
Title : Original
Language : English
Service kind : Complete Main
Default : No
Forced : No
Text #1
ID : 8
Format : UTF-8
Codec ID : S_TEXT/UTF8
Codec ID/Info : UTF-8 Plain Text
Duration : 1 h 29 min
Bit rate : 3 b/s
Count of elements : 68
Stream size : 2.41 KiB (0%)
Title : Forced [HDRezka Studio]
Language : Russian
Default : No
Forced : No
Text #2
ID : 9
Format : UTF-8
Codec ID : S_TEXT/UTF8
Codec ID/Info : UTF-8 Plain Text
Duration : 1 h 29 min
Bit rate : 47 b/s
Count of elements : 660
Stream size : 31.3 KiB (0%)
Title : Full
Language : Russian
Default : No
Forced : No
Text #3
ID : 10
Format : UTF-8
Codec ID : S_TEXT/UTF8
Codec ID/Info : UTF-8 Plain Text
Duration : 1 h 28 min
Bit rate : 51 b/s
Count of elements : 805
Stream size : 33.3 KiB (0%)
Title : Full [FOCS (Uncensored)]
Language : Russian
Default : No
Forced : No
Text #4
ID : 11
Format : UTF-8
Codec ID : S_TEXT/UTF8
Codec ID/Info : UTF-8 Plain Text
Duration : 1 h 26 min
Bit rate : 28 b/s
Count of elements : 740
Stream size : 18.1 KiB (0%)
Title : Full
Language : English
Default : No
Forced : No
Text #5
ID : 12
Format : UTF-8
Codec ID : S_TEXT/UTF8
Codec ID/Info : UTF-8 Plain Text
Duration : 1 h 31 min
Bit rate : 48 b/s
Count of elements : 1329
Stream size : 32.4 KiB (0%)
Title : SDH
Language : English
Default : No
Forced : No


Последний раз редактировалось: rastor (2021-06-09 21:28), всего редактировалось 5 раз(а)
Профиль  ЛС 
rastor ®

Стаж: 12 лет
Сообщений: 5232

Создавать темы rastor ® написал(а)
16-Апр-2021 08:42 (спустя 2 минуты)
Хороший боевик. Осталось дождаться лицензии.
Профиль  ЛС 
медведьтт

Стаж: 7 лет 1 месяц
Сообщений: 285

Создавать темы медведьтт написал(а)
16-Апр-2021 22:37 (спустя 13 часов)
Качество фильма - смотрибельное.
Перевод - не соответствует фильму, даже мат не спасает.
Сам фильм - хорош, но ожидал большего: не серьезный фильм как Джон Уик, и не комедийный боевик - как многие в этом жанре. Тему с русскими и Серебряковым - вообще раскрыли слабо.
Хотя , конечно, сюжет бодрый.
В итоге - на 6.5 из 10
Профиль  ЛС 
Дмитрий777

Стаж: 3 года 5 месяцев
Сообщений: 11

Создавать темы Дмитрий777 написал(а)
19-Апр-2021 22:10 (спустя 2 дня 23 часа)
Найшуллера посмотрим!
Профиль  ЛС 
florid3250

Стаж: 12 лет
Сообщений: 58
Откуда: Уфа

Создавать темы florid3250 написал(а)
22-Апр-2021 17:39 (спустя 2 дня 19 часов)
Перевод полная дрянь, через минуту удалил, жду качества!!!
Профиль  ЛС 
rastor ®

Стаж: 12 лет
Сообщений: 5232

Создавать темы rastor ® написал(а)
09-Июн-2021 21:29 (спустя 1 месяц 17 дней)
Торрент-файл обновлен на лицензию
Профиль  ЛС 
SkyDragon

Стаж: 11 лет
Сообщений: 232
Откуда: Уфа

Создавать темы SkyDragon написал(а)
09-Июн-2021 22:25 (спустя 55 минут)
ну наконец-то будет что посмотреть сегодня вечером)
Профиль  ЛС 
Показать сообщения:     

Вы не можете начинать темы
Вы не можете отвечать на сообщения
Вы не можете редактировать свои сообщения
Вы не можете удалять свои сообщения
Вы не можете голосовать в опросах
Вы не можете прикреплять файлы к сообщениям
Вы не можете скачивать файлы

Текущее время: 14-Июн 23:17
Часовой пояс: UTC + 5