Синяя бездна 2 / 47 Meters Down: Uncaged (Йоханнес Робертс) [2019 г., Ужасы, триллер, драма, приключения, BDRip 1080p] Лицензия

Автор Сообщение
rastor ®

Стаж: 11 лет
Сообщений: 4233

Создавать темы rastor ® написал(а)
29-Окт-2019 04:14
Синяя бездна 247 Meters Down: Uncaged Год выпуска: 2019
Страна: Великобритания, США
Жанр: Ужасы, триллер, драма, приключения
Продолжительность: 01:30:04
Перевод: Профессиональный (полное дублирование)
Субтитры: Русские, английские-Режиссер: Йоханнес Робертс-В ролях: Софи Нелисс, Корина Фокс, Бриэнн Тджу, Систин Роуз Сталлоне, Брэк Бэссинджер, Ниа Лонг, Джон Корбетт, Дави Сантос, Кайлин Рамбо, Аксель Мансилла-Описание: Три подруги отправляются исследовать подводный разрушенный город, но вскоре выясняют, что посмотреть на руины приплыли не они одни. Запланированное развлечение оборачивается кошмаром - теперь ныряльщицам придется спасаться от кровожадных акул.--Качество: BDRip 1080p
Формат: MKV
Видео кодек: H.264
Аудио кодек: AC3, DTS
Видео: 1920x808 23.98fps 8912kbps
Аудио:
Аудио Rus: AC3 48kHz 6ch 384Kbps
Аудио Eng: AC3 48kHz 6ch 640Kbps
Аудио Eng: DTS 48kHz 6ch 1509Kbps

MediaInfo

Format : Matroska
Format version : Version 4 / Version 2
File size : 7.20 GiB
Duration : 1h 30mn
Overall bit rate : 11.4 Mbps
Encoded date : UTC 2019-11-01 16:04:52
Writing application : mkvmerge v22.0.0 ('At The End Of The World') 64-bit
Writing library : libebml v1.3.5 + libmatroska v1.4.8
Video
ID : 1
Format : AVC
Format/Info : Advanced Video Codec
Format profile : High@L4.1
Format settings, CABAC : Yes
Format settings, ReFrames : 5 frames
Codec ID : V_MPEG4/ISO/AVC
Duration : 1h 30mn
Bit rate : 8 912 Kbps
Width : 1 920 pixels
Height : 808 pixels
Display aspect ratio : 2.40:1
Frame rate mode : Constant
Frame rate : 23.976 fps
Color space : YUV
Chroma subsampling : 4:2:0
Bit depth : 8 bits
Scan type : Progressive
Bits/(Pixel*Frame) : 0.240
Stream size : 5.46 GiB (76%)
Writing library : x264 core 158 r2984 3759fcb
Encoding settings : cabac=1 / ref=5 / deblock=1:-3:-3 / analyse=0x3:0x113 / me=umh / subme=8 / psy=1 / psy_rd=1.00:0.00 / mixed_ref=1 / me_range=16 / chroma_me=1 / trellis=1 / 8x8dct=1 / cqm=0 / deadzone=21,11 / fast_pskip=1 / chroma_qp_offset=-2 / threads=25 / lookahead_threads=4 / sliced_threads=0 / nr=0 / decimate=1 / interlaced=0 / bluray_compat=0 / constrained_intra=0 / bframes=3 / b_pyramid=2 / b_adapt=1 / b_bias=0 / direct=3 / weightb=1 / open_gop=0 / weightp=2 / keyint=250 / keyint_min=23 / scenecut=40 / intra_refresh=0 / rc_lookahead=50 / rc=2pass / mbtree=1 / bitrate=8912 / ratetol=1.0 / qcomp=0.60 / qpmin=0 / qpmax=69 / qpstep=4 / cplxblur=20.0 / qblur=0.5 / ip_ratio=1.40 / aq=1:1.00
Language : English
Default : Yes
Forced : No
Audio #1
ID : 2
Format : AC-3
Format/Info : Audio Coding 3
Mode extension : CM (complete main)
Format settings, Endianness : Big
Codec ID : A_AC3
Duration : 1h 30mn
Bit rate mode : Constant
Bit rate : 384 Kbps
Channel(s) : 6 channels
Channel positions : Front: L C R, Side: L R, LFE
Sampling rate : 48.0 KHz
Bit depth : 16 bits
Compression mode : Lossy
Stream size : 247 MiB (3%)
Title : iTunes
Language : Russian
Default : Yes
Forced : Yes
Audio #2
ID : 3
Format : DTS
Format/Info : Digital Theater Systems
Mode : 16
Format settings, Endianness : Big
Codec ID : A_DTS
Duration : 1h 30mn
Bit rate mode : Constant
Bit rate : 1 509 Kbps
Channel(s) : 6 channels
Channel positions : Front: L C R, Side: L R, LFE
Sampling rate : 48.0 KHz
Bit depth : 24 bits
Compression mode : Lossy
Stream size : 972 MiB (13%)
Language : English
Default : No
Forced : No
Audio #3
ID : 4
Format : AC-3
Format/Info : Audio Coding 3
Mode extension : CM (complete main)
Format settings, Endianness : Big
Codec ID : A_AC3
Duration : 1h 30mn
Bit rate mode : Constant
Bit rate : 640 Kbps
Channel(s) : 6 channels
Channel positions : Front: L C R, Side: L R, LFE
Sampling rate : 48.0 KHz
Bit depth : 16 bits
Compression mode : Lossy
Stream size : 412 MiB (6%)
Language : English
Default : No
Forced : No
Text #1
ID : 5
Format : UTF-8
Codec ID : S_TEXT/UTF8
Codec ID/Info : UTF-8 Plain Text
Title : Full
Language : Russian
Default : No
Forced : No
Text #2
ID : 6
Format : UTF-8
Codec ID : S_TEXT/UTF8
Codec ID/Info : UTF-8 Plain Text
Title : Full
Language : English
Default : No
Forced : No


Последний раз редактировалось: rastor (2019-11-02 09:37), всего редактировалось 1 раз
Профиль  ЛС 
brikantes

Стаж: 6 лет 2 месяца
Сообщений: 78

Создавать темы brikantes написал(а)
29-Окт-2019 11:37 (спустя 7 часов)
очень страшно и шокирующе.
Профиль  ЛС 
kloud_komputer

Стаж: 10 лет
Сообщений: 110
Откуда: Стерлитамак

Создавать темы kloud_komputer написал(а)
30-Окт-2019 01:07 (спустя 13 часов)
ага. херота херот.
Профиль  ЛС 
rastor ®

Стаж: 11 лет
Сообщений: 4233

Создавать темы rastor ® написал(а)
02-Ноя-2019 09:39 (спустя 3 дня)
Торрент-файл обновлен на BDRip 1080p.
Профиль  ЛС 
IIpuHce

Стаж: 10 лет
Сообщений: 654

Создавать темы IIpuHce написал(а)
02-Ноя-2019 12:08 (спустя 2 часа 28 минут)
Классика жанра. Тупых шлю.... будет жрать акула, которая видимо закончила три факультета в МГУ и заодно лучшие университеты в англии (или где там фильм снимали).
Фильм нужно в школах показывать, чтобы донести мысль деградации тупых школьниц.
Профиль  ЛС 
coolt57

Стаж: 5 лет 7 месяцев
Сообщений: 5

Создавать темы coolt57 написал(а)
02-Ноя-2019 13:04 (спустя 56 минут)
Дочь Сталлоне решила подзаработать. Фильм шлак полнейший. Растор +
Профиль  ЛС 
brikantes

Стаж: 6 лет 2 месяца
Сообщений: 78

Создавать темы brikantes написал(а)
09-Ноя-2019 11:23 (спустя 6 дней)
Посмотрел второй раз. Потрясающий фильм.
Напряжение на протяжении всего хронометража.
Все фильмы снятые ранние про акул это сказки.
Шедевр. Многие детали начинаешь видеть после второго просмотра
Профиль  ЛС 
amati007

Стаж: 7 лет 5 месяцев
Сообщений: 3
Откуда: ??

Создавать темы amati007 написал(а)
18-Ноя-2019 15:37 (спустя 9 дней)
Хрень, не зашло..
Профиль  ЛС 
Показать сообщения:     

Вы не можете начинать темы
Вы не можете отвечать на сообщения
Вы не можете редактировать свои сообщения
Вы не можете удалять свои сообщения
Вы не можете голосовать в опросах
Вы не можете прикреплять файлы к сообщениям
Вы не можете скачивать файлы

Текущее время: 23-Ноя 01:44
Часовой пояс: UTC + 5