Али, рули! / Stuber (Майкл Даус) [2019, США, боевик, триллер, комедия, криминал, WEB-DLRip] Dub (iTunes)

Автор Сообщение
Night_hunter1102 ®

Стаж: 6 лет 8 месяцев
Сообщений: 82

Создавать темы Night_hunter1102 ® написал(а)
05-Окт-2019 18:28
Али, рули! / Stuber
Страна: США
Жанр: боевик, триллер, комедия, криминал
Год выпуска: 2019
Продолжительность: 01:33:23-Перевод: Профессиональный (дублированный) | iTunes
Субтитры: русские (forced)
Оригинальная аудиодорожка: нет-Режиссер:
Майкл Даус / Michael Dowse-В ролях: Кумэйл Нанджиани, Дэйв Батиста, Мира Сорвино, Натали Моралес, Ико Уайс, Бетти Гилпин, Карен Гиллан, Джимми Татро, Стив Хоуи, Рене Моран-Описание: Скромный водитель Uber по имени Стю подбирает пассажира, который оказывается полицейским, идущим по следу жестокого убийцы. Таксист даже представить не мог, что теперь его ждет мучительное испытание, в ходе которого он будет отчаянно пытаться сохранить здравомыслие, жизнь и пятизвездочный рейтинг в приложении.--Качество видео: WEB-DLRip
Формат видео: AVI
Видео: 720x304 (2.37:1), 23.976 fps, XviD build 73 ~1838 kbps avg, 0.35 bit/pixel
Аудио: 48 kHz, AC3 Dolby Digital, 3/2 (L,C,R,l,r) + LFE ch, ~384 kbps-
Сэмпл

-

MediaInfo


Формат                                   : AVI
Формат/Информация                        : Audio Video Interleave
Размер файла                             : 1,46 Гбайт
Продолжительность                        : 1 ч. 33 м.
Общий поток                              : 2232 Кбит/сек
Название фильма                          : Али, рули!_2019_WEB-DLRip
Программа кодирования                    : VirtualDubMod 1.5.10.3 | www.virtualdub-fr.org || (build 2550/release)
Авторское право                          : порошков
Видео
Идентификатор                            : 0
Формат                                   : MPEG-4 Visual
Профиль формата                          : Advanced Simple@L5
Настройки формата                        : BVOP1 / Custom Matrix
Параметр BVOP формата                    : 1
Параметр QPel формата                    : Нет
Параметр GMC формата                     : Без точки перехода
Параметр матрицы формата                 : Выборочная
Идентификатор кодека                     : XVID
Идентификатор кодека/Подсказка           : XviD
Продолжительность                        : 1 ч. 33 м.
Битрейт                                  : 1839 Кбит/сек
Ширина                                   : 720 пикселей
Высота                                   : 304 пикселя
Соотношение сторон                       : 2,35:1
Частота кадров                           : 23,976 (24000/1001) кадра/сек
Цветовое пространство                    : YUV
Субдискретизация насыщенности            : 4:2:0
Битовая глубина                          : 8 бит
Тип развёртки                            : Прогрессивная
Метод сжатия                             : С потерями
Бит/(Пиксели*Кадры)                      : 0.350
Размер потока                            : 1,20 Гбайт (82%)
Библиотека кодирования                   : XviD 73
Аудио
Идентификатор                            : 1
Формат                                   : AC-3
Формат/Информация                        : Audio Coding 3
Коммерческое название                    : Dolby Digital
Идентификатор кодека                     : 2000
Продолжительность                        : 1 ч. 33 м.
Вид битрейта                             : Постоянный
Битрейт                                  : 384 Кбит/сек
Каналы                                   : 6 каналов
ChannelLayout                            : L R C LFE Ls Rs
Частота                                  : 48,0 КГц
Частота кадров                           : 31,250 кадров/сек (1536 SPF)
Метод сжатия                             : С потерями
Размер потока                            : 256 Мбайт (17%)
Выравнивание                             : Разделение по промежуткам
Продолжительность промежутка             : 42  мс. (1,00 видеокадр)
Время предзагрузки промежутка            : 500  мс.
ServiceKind/String                       : Complete Main

Скриншоты


Профиль  ЛС 
Показать сообщения:     

Вы не можете начинать темы
Вы не можете отвечать на сообщения
Вы не можете редактировать свои сообщения
Вы не можете удалять свои сообщения
Вы не можете голосовать в опросах
Вы не можете прикреплять файлы к сообщениям
Вы не можете скачивать файлы

Текущее время: 22-Окт 07:13
Часовой пояс: UTC + 5