В высокой траве / In the Tall Grass (Винченцо Натали) [2019, Ужасы, триллер, фэнтези, WEBRip 1080p]

Автор Сообщение
fikus ®

Стаж: 11 лет
Сообщений: 267
Откуда: Уфа

Создавать темы fikus ® написал(а)
05-Окт-2019 03:13
В высокой траве / In the Tall Grass
Страна: Канада
Студия: Copper Heart Entertainment, NetFlix
Жанр: Ужасы, триллер, фэнтези,
Год выпуска: 2019
Продолжительность: 01:41:54
Перевод: Любительский (одноголосый)
Режиссер: Винченцо Натали
В ролях: Лайсла Де Оливейра, Эйвери Уиттед, Патрик Уилсон, Уилл Бьюи мл., Харрисон Гилбертсон, Тиффани Хельм, Рэйчел Уилсон
Описание: Экранизация знаменитого произведения Стивена Кинга. Брат и сестра едут в автомобиле по канзасской глуши. Во время короткой остановки они слышат крики о помощи, доносящиеся из зарослей высокой травы. Они решают откликнуться на призыв, не подозревая что ждет их впереди.
Качество: WEBRip 1080p
Формат: MKV
Видео кодек: H.264
Аудио кодек: AC3
Видео: 1920x1080 24fps 7500 kbps
Аудио: 48KHz 2 ch 192 kbps
Аудио: 48KHz 6 ch 640 kbps
Субтитры: Есть (rus, eng)

MediaInfo

Format : Matroska
Format version : Version 4 / Version 2
File size : 5.89 GiB
Duration : 1h 41mn
Overall bit rate mode : Variable
Overall bit rate : 8 278 Kbps
Movie name : In.the.Tall.Grass.2019.1080p.NF.WEBRip.DD5.1.x264-FGT
Encoded date : UTC 2019-10-04 18:33:00
Writing application : mkvmerge v7.1.0 ('Good Love') 64bit built on Jul 27 2014 13:06:55
Writing library : libebml v1.3.0 + libmatroska v1.4.1
DURATION : 01:41:54.624000000
NUMBER_OF_FRAMES : 191082
NUMBER_OF_BYTES : 146750976
_STATISTICS_WRITING_APP : mkvmerge v7.1.0 ('Good Love') 64bit built on Jul 27 2014 13:06:55
_STATISTICS_WRITING_DATE_UTC : 2019-10-04 18:33:00
_STATISTICS_TAGS : BPS DURATION NUMBER_OF_FRAMES NUMBER_OF_BYTES
Video
ID : 1
Format : AVC
Format/Info : Advanced Video Codec
Format profile : Main@L4
Format settings, CABAC : Yes
Format settings, ReFrames : 3 frames
Codec ID : V_MPEG4/ISO/AVC
Duration : 1h 41mn
Bit rate mode : Variable
Bit rate : 7 500 Kbps
Maximum bit rate : 11.2 Mbps
Width : 1 920 pixels
Height : 1 080 pixels
Display aspect ratio : 16:9
Frame rate mode : Constant
Frame rate : 24.000 fps
Color space : YUV
Chroma subsampling : 4:2:0
Bit depth : 8 bits
Scan type : Progressive
Bits/(Pixel*Frame) : 0.151
Stream size : 5.18 GiB (88%)
Writing library : x264 core 148 r2715 7e75228
Encoding settings : cabac=1 / ref=3 / deblock=1:0:0 / analyse=0x1:0x111 / me=umh / subme=10 / psy=1 / psy_rd=1.00:0.00 / mixed_ref=1 / me_range=24 / chroma_me=1 / trellis=2 / 8x8dct=0 / cqm=0 / deadzone=21,11 / fast_pskip=1 / chroma_qp_offset=-2 / threads=8 / lookahead_threads=1 / sliced_threads=0 / nr=0 / decimate=1 / interlaced=0 / bluray_compat=0 / stitchable=1 / constrained_intra=0 / bframes=2 / b_pyramid=0 / b_adapt=2 / b_bias=0 / direct=3 / weightb=1 / open_gop=0 / weightp=2 / keyint=250 / keyint_min=24 / scenecut=0 / intra_refresh=0 / rc_lookahead=48 / rc=2pass / mbtree=1 / bitrate=7500 / ratetol=1.0 / qcomp=0.50 / qpmin=6 / qpmax=51 / qpstep=4 / cplxblur=20.0 / qblur=0.5 / vbv_maxrate=11250 / vbv_bufsize=15000 / nal_hrd=vbr / filler=0 / ip_ratio=1.40 / aq=1:1.00
Language : English
Default : Yes
Forced : No
Audio #1
ID : 2
Format : AC-3
Format/Info : Audio Coding 3
Mode extension : CM (complete main)
Format settings, Endianness : Big
Codec ID : A_AC3
Duration : 1h 41mn
Bit rate mode : Constant
Bit rate : 192 Kbps
Channel(s) : 2 channels
Channel positions : Front: L R
Sampling rate : 48.0 KHz
Bit depth : 16 bits
Compression mode : Lossy
Stream size : 140 MiB (2%)
Language : Russian
Default : Yes
Forced : No
Audio #2
ID : 3
Format : AC-3
Format/Info : Audio Coding 3
Mode extension : CM (complete main)
Format settings, Endianness : Big
Codec ID : A_AC3
Duration : 1h 41mn
Bit rate mode : Constant
Bit rate : 640 Kbps
Channel(s) : 6 channels
Channel positions : Front: L C R, Side: L R, LFE
Sampling rate : 48.0 KHz
Bit depth : 16 bits
Compression mode : Lossy
Stream size : 467 MiB (8%)
Language : English
Default : No
Forced : No
Text #1
ID : 4
Format : UTF-8
Codec ID : S_TEXT/UTF8
Codec ID/Info : UTF-8 Plain Text
Language : Russian
Default : No
Forced : No
Text #2
ID : 5
Format : UTF-8
Codec ID : S_TEXT/UTF8
Codec ID/Info : UTF-8 Plain Text
Language : English
Default : No
Forced : No
Text #3
ID : 6
Format : UTF-8
Codec ID : S_TEXT/UTF8
Codec ID/Info : UTF-8 Plain Text
Title : SDH
Language : English
Default : No
Forced : No
Профиль  ЛС 
aaanana

Стаж: 1 год 10 месяцев
Сообщений: 31

Создавать темы aaanana написал(а)
06-Окт-2019 11:20 (спустя 1 день 8 часов)
с самого начала бесит, кругом трава, трава, трава...
Профиль  ЛС 
Akemi Homura

Стаж: 2 года 7 месяцев
Сообщений: 78

Создавать темы Akemi Homura написал(а)
07-Окт-2019 00:28 (спустя 13 часов)
Достойный фильмец.
Профиль  ЛС 
Показать сообщения:     

Вы не можете начинать темы
Вы не можете отвечать на сообщения
Вы не можете редактировать свои сообщения
Вы не можете удалять свои сообщения
Вы не можете голосовать в опросах
Вы не можете прикреплять файлы к сообщениям
Вы не можете скачивать файлы

Текущее время: 22-Окт 07:07
Часовой пояс: UTC + 5