Эбигейл (Александр Богуславский) [2019, приключения, фэнтези, семейный, WEB-DLRip-AVC]

Автор Сообщение
sergoufaVDV ®

Стаж: 3 года 9 месяцев
Сообщений: 368
Откуда: Нагаево

Создавать темы sergoufaVDV ® написал(а)
03-Окт-2019 15:48
Эбигейл
Жанр: приключения, фэнтези, семейный
Год выпуска: 2019
Продолжительность: 01:46:16
Режиссер: Александр Богуславский
В ролях: Тинатин Далакишвили, Риналь Мухаметов, Артём Ткаченко, Равшана Куркова, Никита Дювбанов, Сергей Горошко, Глеб Бочков, Эдди Марсан, Оливье Сиу, Ксения Кутепова, Петар Зекавица, Марта Тимофеева, Сесиль Плеже

Описание: Молодая девушка Эбигейл живет в городе, границы которого закрыли много лет назад из-за эпидемии загадочной болезни. Отец Эбби был одним из заболевших – и его забрали, когда ей было шесть лет. Пойдя наперекор властям, чтобы разыскать отца, Эбби узнает о том, что ее город на самом деле полон магии. И в ней самой пробуждаются необыкновенные магические способности…
Качество: WEB-DLRip-AVC
Формат видео: MKV
Видео: 1024x426, (2,40:1), 23.976 fps, AVC MPEG-4 (x264), High@L4.1 ~ 1756 kbps , 0.128 bit/pixel
Аудио: 48 kHz, AC3 Dolby Digital, 3/2 (L,C,R,l,r) + LFE ch, ~384 kbps

MediaInfo

Общее
Уникальный идентификатор : 22952829815833946343423864475508896987 (0x11448DE1B1C6EBCF461C89A552D974DB)
Полное имя : F:OlLanDGroupEbigeil.2019.WEB-DLRip(AVC).OlLanDGroup.mkv
Формат : Matroska
Версия формата : Version 4 / Version 2
Размер файла : 1,59 Гбайт
Продолжительность : 1 ч. 46 м.
Общий поток : 2139 Кбит/сек
Название фильма : Ebigeil.2019 #TorpedoUK#
Дата кодирования : UTC 2019-10-03 08:24:04
Программа кодирования : mkvmerge v29.0.0 (''Like It Or Not'') 64-bit
Библиотека кодирования : libebml v1.3.6 + libmatroska v1.4.9
Видео
Идентификатор : 1
Формат : AVC
Формат/Информация : Advanced Video Codec
Профиль формата : High@L4.1
Параметр CABAC формата : Да
Параметр ReFrames формата : 10 кадров
Идентификатор кодека : V_MPEG4/ISO/AVC
Продолжительность : 1 ч. 46 м.
Битрейт : 1756 Кбит/сек
Ширина : 1024 пикселя
Высота : 426 пикселей
Соотношение сторон : 2,40:1
Режим частоты кадров : Постоянный
Частота кадров : 23,976 (24000/1001) кадра/сек
Цветовое пространство : YUV
Субдискретизация насыщенности : 4:2:0
Битовая глубина : 8 бит
Тип развёртки : Прогрессивная
Бит/(Пиксели*Кадры) : 0.168
Размер потока : 1,30 Гбайт (82%)
Библиотека кодирования : x264 core 146 r2538 121396c
Настройки программы : cabac=1 / ref=10 / deblock=1:-2:-3 / analyse=0x3:0x113 / me=umh / subme=10 / psy=1 / psy_rd=0.95:0.07 / mixed_ref=1 / me_range=48 / chroma_me=1 / trellis=2 / 8x8dct=1 / cqm=0 / deadzone=21,11 / fast_pskip=1 / chroma_qp_offset=-6 / threads=6 / lookahead_threads=1 / sliced_threads=0 / nr=0 / decimate=1 / interlaced=0 / bluray_compat=0 / constrained_intra=0 / bframes=11 / b_pyramid=2 / b_adapt=2 / b_bias=0 / direct=3 / weightb=1 / open_gop=0 / weightp=2 / keyint=240 / keyint_min=23 / scenecut=40 / intra_refresh=0 / rc_lookahead=40 / rc=2pass / mbtree=0 / bitrate=1756 / ratetol=1.0 / qcomp=0.60 / qpmin=0 / qpmax=69 / qpstep=4 / cplxblur=20.0 / qblur=0.5 / vbv_maxrate=50000 / vbv_bufsize=62500 / nal_hrd=none / filler=0 / ip_ratio=1.40 / pb_ratio=1.30 / aq=1:1.00
Язык : English
Default : Да
Forced : Нет
Аудио
Идентификатор : 2
Формат : AC-3
Формат/Информация : Audio Coding 3
Расширение режима : CM (complete main)
Параметр Endianness формата : Big
Идентификатор кодека : A_AC3
Продолжительность : 1 ч. 46 м.
Вид битрейта : Постоянный
Битрейт : 384 Кбит/сек
Каналы : 6 каналов
Расположение каналов : Front: L C R, Side: L R, LFE
Частота : 48,0 КГц
Частота кадров : 31,250 кадров/сек (1536 spf)
Битовая глубина : 16 бит
Метод сжатия : С потерями
Размер потока : 292 Мбайт (18%)
Заголовок : [iTunes]
Язык : Russian
Default : Да
Forced : Нет

Скриншоты:


Профиль  ЛС 
Heleon

Стаж: 10 лет
Сообщений: 26
Откуда: Оренбург

Создавать темы Heleon написал(а)
04-Окт-2019 17:33 (спустя 1 день 1 час)
Кое как пол часа осилил
Профиль  ЛС 
STAB

Стаж: 11 лет
Сообщений: 27
Откуда: Нефтекамск

Создавать темы STAB написал(а)
05-Окт-2019 15:56 (спустя 22 часа)
кое как досмотрел до конца с третьего раза. полнейший отстой. зря потратил время.
Профиль  ЛС 
медведьтт

Стаж: 5 лет 5 месяцев
Сообщений: 176

Создавать темы медведьтт написал(а)
08-Окт-2019 21:36 (спустя 3 дня)
Качество фильма - смотрибельное.
Сам фильм - может для фэнтези и не плох, но на мой взгляд - муть и нудятина, еле осилил.
Жаль потраченного времени.
В итоге - на 0,5 из 10.
Профиль  ЛС 
Показать сообщения:     

Вы не можете начинать темы
Вы не можете отвечать на сообщения
Вы не можете редактировать свои сообщения
Вы не можете удалять свои сообщения
Вы не можете голосовать в опросах
Вы не можете прикреплять файлы к сообщениям
Вы не можете скачивать файлы

Текущее время: 22-Окт 07:14
Часовой пояс: UTC + 5