Маугли дикой планеты / Terra Willy: Planète inconnue (Эрик Тости) [2019 г., Мультфильм, фантастика, комедия, приключения, полнометражный, BDRip 1080p] Лицензия

Автор Сообщение
rastor ®

Стаж: 10 лет
Сообщений: 4316

Создавать темы rastor ® написал(а)
09-Сен-2019 08:31
Маугли дикой планетыTerra Willy: Planète inconnue Год выпуска: 2019
Страна: Франция
Жанр: Мультфильм, фантастика, комедия, приключения, полнометражный
Продолжительность: 01:26:10
Перевод: Профессиональный (полное дублирование)
Субтитры: Английские-Режиссер: Эрик Тости-В ролях: Тимоте Фон Дорп, Эдуард Баэр, Мари-Южени Марешаль, Гийом Лебон, Барбара Тиссье, Джейсон Каннинг, Лэнден Битти-Описание: Попав в метеоритный дождь, юный космический исследователь Вилли оказывается на неизвестной планете. С помощью робота Бака он должен выжить здесь до прибытия спасательной миссии его родителей. Но батарея Бака быстро садится, и, чтобы спасти Бака и вернуться домой, Вилли придется найти новых друзей и научиться жить по законам джунглей дикой планеты.--Качество: BDRip 1080p
Формат: MKV
Видео кодек: H.264
Аудио кодек: AC3
Видео: 1920x804 24fps 8645kbps
Аудио:
Аудио Rus: 48kHz 6ch 384Kbps
Аудио Eng: 48kHz 6ch 640Kbps

MediaInfo

Format : Matroska
Format version : Version 4
File size : 6.08 GiB
Duration : 1 h 30 min
Overall bit rate : 9 672 kb/s
Movie name : Terra Willy: Planète inconnue / Astro Kid 2019 from селезень
Encoded date : UTC 2019-09-09 02:54:06
Writing application : mkvmerge v22.0.0 ('At The End Of The World') 64-bit
Writing library : libebml v1.3.5 + libmatroska v1.4.8
Video
ID : 1
Format : AVC
Format/Info : Advanced Video Codec
Format profile : High@L4.1
Format settings : CABAC / 5 Ref Frames
Format settings, CABAC : Yes
Format settings, Reference : 5 frames
Codec ID : V_MPEG4/ISO/AVC
Duration : 1 h 30 min
Bit rate : 8 645 kb/s
Width : 1 920 pixels
Height : 804 pixels
Display aspect ratio : 2.40:1
Frame rate mode : Constant
Frame rate : 24.000 FPS
Color space : YUV
Chroma subsampling : 4:2:0
Bit depth : 8 bits
Scan type : Progressive
Bits/(Pixel*Frame) : 0.233
Stream size : 5.44 GiB (89%)
Title : Encoded by seleZen
Writing library : x264 core 148 r2705kMod 3f5ed56
Encoding settings : cabac=1 / ref=5 / deblock=1:-2:-2 / analyse=0x3:0x113 / me=umh / subme=11 / psy=1 / fade_compensate=0.00 / psy_rd=1.01:0.01 / mixed_ref=1 / me_range=32 / chroma_me=1 / trellis=2 / 8x8dct=1 / cqm=0 / deadzone=21,11 / fast_pskip=0 / chroma_qp_offset=-3 / threads=24 / lookahead_threads=6 / sliced_threads=0 / nr=0 / decimate=0 / interlaced=0 / bluray_compat=0 / constrained_intra=0 / fgo=0 / bframes=10 / b_pyramid=2 / b_adapt=2 / b_bias=0 / direct=3 / weightb=1 / open_gop=0 / weightp=2 / keyint=240 / keyint_min=24 / scenecut=40 / intra_refresh=0 / rc_lookahead=50 / rc=2pass / mbtree=0 / bitrate=8645 / ratetol=1.0 / qcomp=0.60 / qpmin=0 / qpmax=51 / qpstep=4 / cplxblur=20.0 / qblur=0.5 / vbv_maxrate=50000 / vbv_bufsize=62500 / nal_hrd=none / filler=0 / ip_ratio=1.40 / pb_ratio=1.30 / aq=3:0.80
Language : English
Default : Yes
Forced : No
Audio #1
ID : 2
Format : AC-3
Format/Info : Audio Coding 3
Commercial name : Dolby Digital
Codec ID : A_AC3
Duration : 1 h 30 min
Bit rate mode : Constant
Bit rate : 384 kb/s
Channel(s) : 6 channels
Channel layout : L R C LFE Ls Rs
Sampling rate : 48.0 kHz
Frame rate : 31.250 FPS (1536 SPF)
Bit depth : 16 bits
Compression mode : Lossy
Stream size : 247 MiB (4%)
Title : iTunes
Language : Russian
Service kind : Complete Main
Default : Yes
Forced : Yes
Audio #2
ID : 3
Format : AC-3
Format/Info : Audio Coding 3
Commercial name : Dolby Digital
Codec ID : A_AC3
Duration : 1 h 30 min
Bit rate mode : Constant
Bit rate : 640 kb/s
Channel(s) : 6 channels
Channel layout : L R C LFE Ls Rs
Sampling rate : 48.0 kHz
Frame rate : 31.250 FPS (1536 SPF)
Bit depth : 16 bits
Compression mode : Lossy
Stream size : 412 MiB (7%)
Title : Original
Language : English
Service kind : Complete Main
Default : No
Forced : No
Text
ID : 4
Format : UTF-8
Codec ID : S_TEXT/UTF8
Codec ID/Info : UTF-8 Plain Text
Duration : 1 h 23 min
Bit rate : 32 b/s
Count of elements : 798
Stream size : 19.7 KiB (0%)
Title : Full
Language : English
Default : No
Forced : No
Menu
00:00:00.000 : it:00:00:00.000
00:04:20.417 : it:00:04:20.417
00:07:44.417 : it:00:07:44.417
00:11:54.083 : it:00:11:54.083
00:16:28.208 : it:00:16:28.208
00:21:05.458 : it:00:21:05.458
00:25:25.750 : it:00:25:25.750
00:29:45.083 : it:00:29:45.083
00:34:37.250 : it:00:34:37.250
00:39:03.458 : it:00:39:03.458
00:43:16.417 : it:00:43:16.417
00:47:32.333 : it:00:47:32.333
00:51:55.417 : it:00:51:55.417
00:57:30.667 : it:00:57:30.667
01:01:45.208 : it:01:01:45.208
01:06:53.667 : it:01:06:53.667
01:11:19.042 : it:01:11:19.042
01:15:46.125 : it:01:15:46.125
01:20:40.667 : it:01:20:40.667
01:26:54.875 : it:01:26:54.875
Профиль  ЛС 
Maksymus

Стаж: 10 лет
Сообщений: 76
Откуда: Ишимбай

Создавать темы Maksymus написал(а)
11-Сен-2019 21:48 (спустя 2 дня 13 часов)
Супер! С ребенком 4-летним смотреть было в радость, и смешных и умилительных моментов хватает, сделано добротно!!!
Профиль  ЛС 
Показать сообщения:     

Вы не можете начинать темы
Вы не можете отвечать на сообщения
Вы не можете редактировать свои сообщения
Вы не можете удалять свои сообщения
Вы не можете голосовать в опросах
Вы не можете прикреплять файлы к сообщениям
Вы не можете скачивать файлы

Текущее время: 16-Сен 22:11
Часовой пояс: UTC + 5