Мертвые не умирают / The Dead Don't Die (Джим Джармуш) [2019 г., Ужасы, фэнтези, комедия, BDRip 1080p] Лицензия

Автор Сообщение
rastor ®

Стаж: 10 лет
Сообщений: 4316

Создавать темы rastor ® написал(а)
05-Сен-2019 07:35
Мертвые не умираютThe Dead Don't Die Год выпуска: 2019
Страна: США, Швеция
Жанр: Ужасы, фэнтези, комедия
Продолжительность: 01:44:28
Перевод: Профессиональный (полное дублирование)
Субтитры: Русские, английские-Режиссер: Джим Джармуш-В ролях: Адам Драйвер, Билл Мюррей, Клоэ Севиньи, Тильда Суинтон, Стив Бушеми, Селена Гомес, RZA, Алисса Мария Апп, Карл Арчилези, Моника Эйрс, Дэнни Гловер, Игги Поп, Том Уэйтс, Эстер Балинт, Остин Батлер, Люка Сабба, Шарлотта Кемп Мюль-Описание: В маленьком американском городке что-то пошло не так. День наступает ночью, домашние животные убегают в лес, по радио играет одна и та же песня. Ученые, как обычно, не могут ничего толком объяснить. Хотя даже обывателю давно понятно, что это - предвестники зомби-апокалипсиса. И жители города как никогда готовы побороться за свою плоть!--Качество: BDRip 1080p
Формат: MKV
Видео кодек: H.264
Аудио кодек: AC3
Видео: 1920x1080 23.98fps 7975kbps
Аудио:
Аудио Rus: 48kHz 6ch 384Kbps
Аудио Eng: 48kHz 6ch 448Kbps

MediaInfo

Формат : Matroska
Версия формата : Version 4 / Version 2
Размер файла : 6,43 Гбайт
Продолжительность : 1 ч. 44 м.
Общий поток : 8809 Кбит/сек
Дата кодирования : UTC 2019-09-04 19:11:06
Программа кодирования : mkvmerge v9.5.0 ('Quiet Fire') 64bit
Библиотека кодирования : libebml v1.3.4 + libmatroska v1.4.5
Видео
Идентификатор : 1
Формат : AVC
Формат/Информация : Advanced Video Codec
Профиль формата : High@L4.1
Настройки формата : CABAC / 4 Ref Frames
Параметр CABAC формата : Да
Параметр RefFrames формата : 4 кадра
Идентификатор кодека : V_MPEG4/ISO/AVC
Продолжительность : 1 ч. 44 м.
Битрейт : 7975 Кбит/сек
Ширина : 1920 пикселей
Высота : 1080 пикселей
Соотношение сторон : 16:9
Режим частоты кадров : Постоянный
Частота кадров : 23,976 (24000/1001) кадра/сек
Цветовое пространство : YUV
Субдискретизация насыщенности : 4:2:0
Битовая глубина : 8 бит
Тип развёртки : Прогрессивная
Бит/(Пиксели*Кадры) : 0.160
Размер потока : 5,82 Гбайт (91%)
Заголовок : Sisendrovich(R)
Библиотека кодирования : x264 core 157 r2958 57baac4
Настройки программы : cabac=1 / ref=4 / deblock=1:-1:-1 / analyse=0x3:0x133 / me=tesa / subme=11 / psy=1 / psy_rd=1.00:0.00 / mixed_ref=1 / me_range=32 / chroma_me=1 / trellis=2 / 8x8dct=1 / cqm=0 / deadzone=21,11 / fast_pskip=0 / chroma_qp_offset=-2 / threads=17 / lookahead_threads=4 / sliced_threads=0 / nr=0 / decimate=0 / interlaced=0 / bluray_compat=0 / constrained_intra=0 / bframes=14 / b_pyramid=2 / b_adapt=2 / b_bias=0 / direct=3 / weightb=1 / open_gop=0 / weightp=2 / keyint=240 / keyint_min=23 / scenecut=40 / intra_refresh=0 / rc_lookahead=120 / rc=2pass / mbtree=0 / bitrate=7975 / ratetol=1.0 / qcomp=0.70 / qpmin=0 / qpmax=69 / qpstep=4 / cplxblur=20.0 / qblur=0.5 / vbv_maxrate=50000 / vbv_bufsize=62500 / nal_hrd=none / filler=0 / ip_ratio=1.40 / pb_ratio=1.30 / aq=3:0.90
Язык : English
Default : Да
Forced : Нет
Аудио #1
Идентификатор : 2
Формат : AC-3
Формат/Информация : Audio Coding 3
Параметр Endianness формата : Big
Идентификатор кодека : A_AC3
Продолжительность : 1 ч. 44 м.
Вид битрейта : Постоянный
Битрейт : 384 Кбит/сек
Каналы : 6 каналов
Расположение каналов : Front: L C R, Side: L R, LFE
Частота : 48,0 КГц
Частота кадров : 31,250 кадров/сек (1536 SPF)
Битовая глубина : 16 бит
Метод сжатия : С потерями
Размер потока : 287 Мбайт (4%)
Заголовок : rus
Язык : Russian
Default : Да
Forced : Нет
Аудио #2
Идентификатор : 3
Формат : AC-3
Формат/Информация : Audio Coding 3
Параметр Endianness формата : Big
Идентификатор кодека : A_AC3
Продолжительность : 1 ч. 44 м.
Вид битрейта : Постоянный
Битрейт : 448 Кбит/сек
Каналы : 6 каналов
Расположение каналов : Front: L C R, Side: L R, LFE
Частота : 48,0 КГц
Частота кадров : 31,250 кадров/сек (1536 SPF)
Битовая глубина : 16 бит
Метод сжатия : С потерями
Размер потока : 335 Мбайт (5%)
Заголовок : eng
Язык : English
Default : Нет
Forced : Нет
Текст #1
Идентификатор : 4
Формат : UTF-8
Идентификатор кодека : S_TEXT/UTF8
Идентификатор кодека/Информация : UTF-8 Plain Text
Продолжительность : 1 ч. 18 м.
Битрейт : 0 бит/сек
ElementCount : 10
Размер потока : 396 байт (0%)
Заголовок : rusForced
Язык : Russian
Default : Да
Forced : Да
Текст #2
Идентификатор : 5
Формат : UTF-8
Идентификатор кодека : S_TEXT/UTF8
Идентификатор кодека/Информация : UTF-8 Plain Text
Продолжительность : 1 ч. 41 м.
Битрейт : 43 бит/сек
ElementCount : 1142
Размер потока : 32,3 Кбайт (0%)
Заголовок : engFull
Язык : English
Default : Нет
Forced : Нет
Текст #3
Идентификатор : 6
Формат : UTF-8
Идентификатор кодека : S_TEXT/UTF8
Идентификатор кодека/Информация : UTF-8 Plain Text
Продолжительность : 1 ч. 42 м.
Битрейт : 52 бит/сек
ElementCount : 1365
Размер потока : 39,3 Кбайт (0%)
Заголовок : engSDH
Язык : English
Default : Нет
Forced : Нет
Меню
00:00:00.000 : :Chapter 01
00:05:01.384 : :Chapter 02
00:10:04.437 : :Chapter 03
00:17:04.148 : :Chapter 04
00:22:28.847 : :Chapter 05
00:28:04.724 : :Chapter 06
00:31:36.269 : :Chapter 07
00:37:56.649 : :Chapter 08
00:43:22.641 : :Chapter 09
00:50:53.050 : :Chapter 10
00:57:04.504 : :Chapter 11
01:01:16.964 : :Chapter 12
01:06:41.580 : :Chapter 13
01:09:20.823 : :Chapter 14
01:14:47.774 : :Chapter 15
01:18:47.681 : :Chapter 16
01:23:50.442 : :Chapter 17
01:28:10.201 : :Chapter 18
01:33:15.798 : :Chapter 19
01:39:11.487 : :Chapter 20
Профиль  ЛС 
Показать сообщения:     

Вы не можете начинать темы
Вы не можете отвечать на сообщения
Вы не можете редактировать свои сообщения
Вы не можете удалять свои сообщения
Вы не можете голосовать в опросах
Вы не можете прикреплять файлы к сообщениям
Вы не можете скачивать файлы

Текущее время: 16-Сен 22:13
Часовой пояс: UTC + 5