Скин / Skin (Гай Наттив) [2019 г., Драма, биография, WEB-DL 1080p] Лицензия

Автор Сообщение
rastor ®

Стаж: 10 лет
Сообщений: 4279

Создавать темы rastor ® написал(а)
08-Авг-2019 06:32
СкинSkin Год выпуска: 2019
Страна: США
Жанр: Драма, биография
Продолжительность: 01:58:18
Перевод: Профессиональный (полное дублирование)
Субтитры: Русские, английские-Режиссер: Гай Наттив-В ролях: Джейми Белл, Даниэль Макдональд, Дэниэл Хеншэлл, Билл Кэмп, Луиза Краузе, Зои Маргарет Коллетти, Кайли Роджерс, Колби Ганнетт, Майк Колтер, Вера Фармига-Описание: Скинхед пытается найти себя в обычной жизни и начинает иначе смотреть на свои поступки, параллельно сталкиваясь с людьми, которые его воспитали.--Качество: WEB-DL 1080p
Формат: MKV
Видео кодек: H.264
Аудио кодек: AC3
Видео: 1920x802 23.98fps 4450kbps
Аудио:
Аудио Rus: 48kHz 6ch 384Kbps
Аудио Eng: 48kHz 6ch 384Kbps

MediaInfo

Format : Matroska
Format version : Version 2
File size : 4.40 GiB
Duration : 1 h 58 min
Overall bit rate : 5 323 kb/s
Movie name : Skin 2018 from ExKinoRay
Encoded date : UTC 2019-08-07 21:30:49
Writing application : mkvmerge v5.6.0 ('Kenya Kane') built on May 27 2012 16:44:04
Writing library : libebml v1.2.3 + libmatroska v1.3.0
Video
ID : 1
Format : AVC
Format/Info : Advanced Video Codec
Format profile : High@L4
Format settings, CABAC : Yes
Format settings, ReFrames : 5 frames
Codec ID : V_MPEG4/ISO/AVC
Duration : 1 h 58 min
Bit rate : 4 450 kb/s
Width : 1 920 pixels
Height : 802 pixels
Display aspect ratio : 2.40:1
Frame rate mode : Constant
Frame rate : 23.976 FPS
Color space : YUV
Chroma subsampling : 4:2:0
Bit depth : 8 bits
Scan type : Progressive
Bits/(Pixel*Frame) : 0.121
Stream size : 3.68 GiB (84%)
Title : Skin.2018.1080p
Language : English
Default : Yes
Forced : No
Color range : Limited
Color primaries : BT.709
Transfer characteristics : BT.709
Matrix coefficients : BT.709
Audio #1
ID : 2
Format : AC-3
Format/Info : Audio Coding 3
Mode extension : CM (complete main)
Format settings, Endianness : Big
Codec ID : A_AC3
Duration : 1 h 58 min
Bit rate mode : Constant
Bit rate : 384 kb/s
Channel(s) : 6 channels
Channel positions : Front: L C R, Side: L R, LFE
Sampling rate : 48.0 kHz
Frame rate : 31.250 FPS (1536 spf)
Compression mode : Lossy
Stream size : 325 MiB (7%)
Title : iTunes
Language : Russian
Default : Yes
Forced : No
Audio #2
ID : 3
Format : AC-3
Format/Info : Audio Coding 3
Mode extension : CM (complete main)
Format settings, Endianness : Big
Codec ID : A_AC3
Duration : 1 h 58 min
Bit rate mode : Constant
Bit rate : 384 kb/s
Channel(s) : 6 channels
Channel positions : Front: L C R, Side: L R, LFE
Sampling rate : 48.0 kHz
Frame rate : 31.250 FPS (1536 spf)
Compression mode : Lossy
Stream size : 325 MiB (7%)
Language : English
Default : No
Forced : No
Text #1
ID : 4
Format : UTF-8
Codec ID : S_TEXT/UTF8
Codec ID/Info : UTF-8 Plain Text
Language : Russian
Default : No
Forced : No
Text #2
ID : 5
Format : UTF-8
Codec ID : S_TEXT/UTF8
Codec ID/Info : UTF-8 Plain Text
Title : Full
Language : English
Default : No
Forced : No
Text #3
ID : 6
Format : UTF-8
Codec ID : S_TEXT/UTF8
Codec ID/Info : UTF-8 Plain Text
Title : SDH
Language : English
Default : No
Forced : No
Menu
00:00:00.000 : en:1
00:05:39.756 : en:2
00:13:29.559 : en:3
00:19:48.521 : en:4
00:30:16.065 : en:5
00:36:30.898 : en:6
00:43:50.671 : en:7
00:46:30.497 : en:8
00:56:32.765 : en:9
01:05:21.168 : en:10
01:09:53.148 : en:11
01:21:29.636 : en:12
01:26:41.405 : en:13
01:36:38.417 : en:14
01:42:09.789 : en:15
01:47:17.054 : en:16
Профиль  ЛС 
Михаил2272998

Стаж: 6 лет 5 месяцев
Сообщений: 60
Откуда: Россия

Создавать темы Михаил2272998 написал(а)
08-Авг-2019 17:21 (спустя 10 часов)
Не то что бы я его стал пересматривать, но вообщем фильм не плох
Звук и картинка отличные
Профиль  ЛС 
LOWRIDER202

Стаж: 9 лет 8 месяцев
Сообщений: 180
Откуда: MEXICO

Создавать темы LOWRIDER202 написал(а)
09-Авг-2019 00:15 (спустя 6 часов)
Сын (Джейми Белл) на отца (Кристиан Белл) очень сильно похож.
Профиль  ЛС 
Показать сообщения:     

Вы не можете начинать темы
Вы не можете отвечать на сообщения
Вы не можете редактировать свои сообщения
Вы не можете удалять свои сообщения
Вы не можете голосовать в опросах
Вы не можете прикреплять файлы к сообщениям
Вы не можете скачивать файлы

Текущее время: 23-Авг 14:58
Часовой пояс: UTC + 5