Скин / Skin (Гай Наттив) [2019 г., Драма, биография, BDRip 1080p] Лицензия

Автор Сообщение
rastor ®

Стаж: 11 лет
Сообщений: 4334

Создавать темы rastor ® написал(а)
08-Авг-2019 06:32
СкинSkin Год выпуска: 2019
Страна: США
Жанр: Драма, биография
Продолжительность: 01:58:26
Перевод: Профессиональный (полное дублирование)
Субтитры: Русские, английские-Режиссер: Гай Наттив-В ролях: Джейми Белл, Даниэль Макдональд, Дэниэл Хеншэлл, Билл Кэмп, Луиза Краузе, Зои Маргарет Коллетти, Кайли Роджерс, Колби Ганнетт, Майк Колтер, Вера Фармига-Описание: Скинхед пытается найти себя в обычной жизни и начинает иначе смотреть на свои поступки, параллельно сталкиваясь с людьми, которые его воспитали.--Качество: BDRip 1080p
Формат: MKV
Видео кодек: H.264
Аудио кодек: AC3
Видео: 1920x804 23.98fps 8654kbps
Аудио:
Аудио Rus: 48kHz 6ch 384Kbps
Аудио Eng: 48kHz 6ch 340Kbps

MediaInfo

Format : Matroska
Format version : Version 4
File size : 8.01 GiB
Duration : 1 h 58 min
Overall bit rate : 9 676 kb/s
Movie name : Skin 2018 from селезень
Encoded date : UTC 2019-10-12 19:13:34
Writing application : mkvmerge v22.0.0 ('At The End Of The World') 64-bit
Writing library : libebml v1.3.5 + libmatroska v1.4.8
Video
ID : 1
Format : AVC
Format/Info : Advanced Video Codec
Format profile : High@L4.1
Format settings : CABAC / 5 Ref Frames
Format settings, CABAC : Yes
Format settings, Reference : 5 frames
Codec ID : V_MPEG4/ISO/AVC
Duration : 1 h 58 min
Bit rate : 8 654 kb/s
Width : 1 920 pixels
Height : 804 pixels
Display aspect ratio : 2.40:1
Frame rate mode : Constant
Frame rate : 23.976 (24000/1001) FPS
Color space : YUV
Chroma subsampling : 4:2:0
Bit depth : 8 bits
Scan type : Progressive
Bits/(Pixel*Frame) : 0.234
Stream size : 7.16 GiB (89%)
Title : Encoded by seleZen
Writing library : x264 core 148 r2705kMod 3f5ed56
Encoding settings : cabac=1 / ref=5 / deblock=1:-2:-2 / analyse=0x3:0x113 / me=umh / subme=11 / psy=1 / fade_compensate=0.00 / psy_rd=1.00:0.00 / mixed_ref=1 / me_range=32 / chroma_me=1 / trellis=2 / 8x8dct=1 / cqm=0 / deadzone=21,11 / fast_pskip=0 / chroma_qp_offset=-2 / threads=24 / lookahead_threads=6 / sliced_threads=0 / nr=0 / decimate=0 / interlaced=0 / bluray_compat=0 / constrained_intra=0 / fgo=0 / bframes=10 / b_pyramid=2 / b_adapt=2 / b_bias=0 / direct=3 / weightb=1 / open_gop=0 / weightp=2 / keyint=240 / keyint_min=23 / scenecut=40 / intra_refresh=0 / rc_lookahead=50 / rc=2pass / mbtree=0 / bitrate=8654 / ratetol=1.0 / qcomp=0.60 / qpmin=0 / qpmax=51 / qpstep=4 / cplxblur=20.0 / qblur=0.5 / vbv_maxrate=50000 / vbv_bufsize=62500 / nal_hrd=none / filler=0 / ip_ratio=1.40 / pb_ratio=1.30 / aq=3:0.80
Language : English
Default : Yes
Forced : No
Audio #1
ID : 2
Format : AC-3
Format/Info : Audio Coding 3
Commercial name : Dolby Digital
Codec ID : A_AC3
Duration : 1 h 58 min
Bit rate mode : Constant
Bit rate : 384 kb/s
Channel(s) : 6 channels
Channel layout : L R C LFE Ls Rs
Sampling rate : 48.0 kHz
Frame rate : 31.250 FPS (1536 SPF)
Bit depth : 16 bits
Compression mode : Lossy
Stream size : 325 MiB (4%)
Title : iTunes
Language : Russian
Service kind : Complete Main
Default : Yes
Forced : Yes
Audio #2
ID : 3
Format : AC-3
Format/Info : Audio Coding 3
Commercial name : Dolby Digital
Codec ID : A_AC3
Duration : 1 h 58 min
Bit rate mode : Constant
Bit rate : 640 kb/s
Channel(s) : 6 channels
Channel layout : L R C LFE Ls Rs
Sampling rate : 48.0 kHz
Frame rate : 31.250 FPS (1536 SPF)
Bit depth : 16 bits
Compression mode : Lossy
Stream size : 542 MiB (7%)
Title : Original
Language : English
Service kind : Complete Main
Default : No
Forced : No
Text #1
ID : 4
Format : UTF-8
Codec ID : S_TEXT/UTF8
Codec ID/Info : UTF-8 Plain Text
Duration : 1 h 51 min
Bit rate : 77 b/s
Count of elements : 1411
Stream size : 62.9 KiB (0%)
Title : Full
Language : Russian
Default : No
Forced : No
Text #2
ID : 5
Format : UTF-8
Codec ID : S_TEXT/UTF8
Codec ID/Info : UTF-8 Plain Text
Duration : 1 h 52 min
Bit rate : 54 b/s
Count of elements : 1417
Stream size : 44.7 KiB (0%)
Title : Full
Language : English
Default : No
Forced : No
Text #3
ID : 6
Format : UTF-8
Codec ID : S_TEXT/UTF8
Codec ID/Info : UTF-8 Plain Text
Duration : 1 h 57 min
Bit rate : 59 b/s
Count of elements : 1702
Stream size : 50.8 KiB (0%)
Title : SDH
Language : English
Default : No
Forced : No
Menu
00:00:00.000 : de:00:00:00.000
00:05:08.600 : de:00:05:08.600
00:12:43.179 : de:00:12:43.179
00:18:54.592 : de:00:18:54.592
00:30:26.116 : de:00:30:26.116
00:36:40.907 : de:00:36:40.907
00:46:40.548 : de:00:46:40.548
01:04:07.677 : de:01:04:07.677
01:17:10.960 : de:01:17:10.960
01:26:51.415 : de:01:26:51.415
01:36:28.992 : de:01:36:28.992
01:44:10.828 : de:01:44:10.828


Последний раз редактировалось: rastor (2019-10-13 09:01), всего редактировалось 1 раз
Профиль  ЛС 
Михаил2272998

Стаж: 6 лет 10 месяцев
Сообщений: 67
Откуда: Россия

Создавать темы Михаил2272998 написал(а)
08-Авг-2019 17:21 (спустя 10 часов)
Не то что бы я его стал пересматривать, но вообщем фильм не плох
Звук и картинка отличные
Профиль  ЛС 
LOWRIDER202

Стаж: 10 лет
Сообщений: 147
Откуда: MEXICO

Создавать темы LOWRIDER202 написал(а)
09-Авг-2019 00:15 (спустя 6 часов)
Сын (Джейми Белл) на отца (Кристиан Белл) очень сильно похож.
Профиль  ЛС 
loogle

Стаж: 8 лет 2 месяца
Сообщений: 2
Откуда: ??

Создавать темы loogle написал(а)
16-Окт-2019 23:24 (спустя 2 месяца 7 дней)
LOWRIDER202, У этих товарищей разные фамилии
Профиль  ЛС 
Показать сообщения:     

Вы не можете начинать темы
Вы не можете отвечать на сообщения
Вы не можете редактировать свои сообщения
Вы не можете удалять свои сообщения
Вы не можете голосовать в опросах
Вы не можете прикреплять файлы к сообщениям
Вы не можете скачивать файлы

Текущее время: 21-Янв 01:38
Часовой пояс: UTC + 5