Дамбо / Dumbo (Тим Бёртон) [2019 г., Фэнтези, семейный, BDRip 1080p] Лицензия

Автор Сообщение
rastor ®

Стаж: 10 лет
Сообщений: 4279

Создавать темы rastor ® написал(а)
28-Июн-2019 09:13
ДамбоDumbo Год выпуска: 2019
Страна: США
Жанр: Фэнтези, семейный
Продолжительность: 01:51:56
Перевод: Профессиональный (полное дублирование)
Субтитры: Русские, английские-Режиссер: Тим Бёртон-В ролях: Колин Фаррелл, Майкл Китон, Дэнни ДеВито, Ева Грин, Алан Аркин, Нико Паркер, Финли Хоббинс, Рошан Сет, Ларс Айдингер, Деобиа Опарей-Описание: Цирковой импресарио Макс Медичи назначает бывшую звезду цирка Холта Фэрриера и его детей Милли и Джо опекунами новорожденного слонёнка, чьи невероятно большие уши сразу становятся предметом для постоянных шуток и насмешек коллег Холта по цеху. Внезапно узнав, что Дамбо умеет летать, владелец цирка решает нажиться на необычных способностях слонёнка. К делу подключается энергичный предприниматель В. А. Вэндевер, который решает сделать из малыша Дамбо главную звезду своего нового грандиозного развлекательного предприятия «Сказочная страна».--Качество: BDRip 1080p
Формат: MKV
Видео кодек: H.264
Аудио кодек: AC3
Видео: 1920x1038 23.98fps 10752kbps
Аудио:
Аудио Rus: 48kHz 6ch 640Kbps
Аудио Eng: 48kHz 6ch 640Kbps

MediaInfo

Format : Matroska
Format version : Version 4
File size : 9.01 GiB
Duration : 1 h 51 min
Overall bit rate : 11.5 Mb/s
Movie name : Dumbo 2019 from селезень
Encoded date : UTC 2019-06-27 18:23:05
Writing application : mkvmerge v35.0.0 ('All The Love In The World') 64-bit
Writing library : libebml v1.3.9 + libmatroska v1.5.2
Video
ID : 1
Format : AVC
Format/Info : Advanced Video Codec
Format profile : High@L4.1
Format settings : CABAC / 4 Ref Frames
Format settings, CABAC : Yes
Format settings, Reference : 4 frames
Codec ID : V_MPEG4/ISO/AVC
Duration : 1 h 51 min
Bit rate : 10.5 Mb/s
Width : 1 920 pixels
Height : 1 038 pixels
Display aspect ratio : 1.85:1
Frame rate mode : Constant
Frame rate : 23.976 (24000/1001) FPS
Color space : YUV
Chroma subsampling : 4:2:0
Bit depth : 8 bits
Scan type : Progressive
Bits/(Pixel*Frame) : 0.220
Stream size : 8.21 GiB (91%)
Title : seleZen
Writing library : x264 core 148 r2705kMod 3f5ed56
Encoding settings : cabac=1 / ref=4 / deblock=1:-2:-2 / analyse=0x3:0x133 / me=tesa / subme=10 / psy=1 / fade_compensate=0.00 / psy_rd=1.20:0.04 / mixed_ref=1 / me_range=32 / chroma_me=1 / trellis=2 / 8x8dct=1 / cqm=0 / deadzone=21,11 / fast_pskip=0 / chroma_qp_offset=-3 / threads=12 / lookahead_threads=3 / sliced_threads=0 / nr=0 / decimate=0 / interlaced=0 / bluray_compat=0 / constrained_intra=0 / fgo=0 / bframes=10 / b_pyramid=2 / b_adapt=2 / b_bias=0 / direct=3 / weightb=1 / open_gop=0 / weightp=2 / keyint=240 / keyint_min=23 / scenecut=40 / intra_refresh=0 / rc_lookahead=50 / rc=2pass / mbtree=0 / bitrate=10500 / ratetol=1.0 / qcomp=0.60 / qpmin=0 / qpmax=51 / qpstep=4 / cplxblur=20.0 / qblur=0.5 / vbv_maxrate=50000 / vbv_bufsize=62500 / nal_hrd=none / filler=0 / ip_ratio=1.40 / pb_ratio=1.30 / aq=3:0.80
Language : English
Default : Yes
Forced : No
Audio #1
ID : 2
Format : AC-3
Format/Info : Audio Coding 3
Commercial name : Dolby Digital
Codec ID : A_AC3
Duration : 1 h 51 min
Bit rate mode : Constant
Bit rate : 640 kb/s
Channel(s) : 6 channels
Channel layout : L R C LFE Ls Rs
Sampling rate : 48.0 kHz
Frame rate : 31.250 FPS (1536 SPF)
Bit depth : 16 bits
Compression mode : Lossy
Stream size : 307 MiB (3%)
Title : iTunes
Language : Russian
Service kind : Complete Main
Default : Yes
Forced : Yes
Audio #2
ID : 3
Format : AC-3
Format/Info : Audio Coding 3
Commercial name : Dolby Digital
Codec ID : A_AC3
Duration : 1 h 51 min
Bit rate mode : Constant
Bit rate : 640 kb/s
Channel(s) : 6 channels
Channel layout : L R C LFE Ls Rs
Sampling rate : 48.0 kHz
Frame rate : 31.250 FPS (1536 SPF)
Bit depth : 16 bits
Compression mode : Lossy
Stream size : 512 MiB (6%)
Title : Original
Language : English
Service kind : Complete Main
Default : No
Forced : No
Text #1
ID : 4
Format : UTF-8
Codec ID : S_TEXT/UTF8
Codec ID/Info : UTF-8 Plain Text
Duration : 1 h 41 min
Bit rate : 1 b/s
Count of elements : 17
Stream size : 838 Bytes (0%)
Title : Forced
Language : Russian
Default : Yes
Forced : Yes
Text #2
ID : 5
Format : UTF-8
Codec ID : S_TEXT/UTF8
Codec ID/Info : UTF-8 Plain Text
Duration : 1 h 51 min
Bit rate : 57 b/s
Count of elements : 1172
Stream size : 47.2 KiB (0%)
Title : Full
Language : Russian
Default : No
Forced : No
Text #3
ID : 6
Format : UTF-8
Codec ID : S_TEXT/UTF8
Codec ID/Info : UTF-8 Plain Text
Duration : 1 h 41 min
Bit rate : 41 b/s
Count of elements : 1209
Stream size : 31.1 KiB (0%)
Title : Full
Language : English
Default : No
Forced : No
Text #4
ID : 7
Format : UTF-8
Codec ID : S_TEXT/UTF8
Codec ID/Info : UTF-8 Plain Text
Duration : 1 h 43 min
Bit rate : 51 b/s
Count of elements : 1565
Stream size : 39.4 KiB (0%)
Title : SDH
Language : English
Default : No
Forced : No
Text #5
ID : 8
Format : UTF-8
Codec ID : S_TEXT/UTF8
Codec ID/Info : UTF-8 Plain Text
Duration : 1 h 43 min
Bit rate : 75 b/s
Count of elements : 1565
Stream size : 56.9 KiB (0%)
Title : SDH Colored
Language : English
Default : No
Forced : No
Menu
00:00:00.000 : en:Глава 01
00:02:49.461 : en:Глава 02
00:06:46.072 : en:Глава 03
00:11:23.766 : en:Глава 04
00:16:33.993 : en:Глава 05
00:19:20.493 : en:Глава 06
00:26:08.233 : en:Глава 07
00:27:46.331 : en:Глава 08
00:31:07.783 : en:Глава 09
00:35:09.024 : en:Глава 10
00:40:44.984 : en:Глава 11
00:46:44.927 : en:Глава 12
00:50:23.938 : en:Глава 13
00:57:15.265 : en:Глава 14
01:01:53.126 : en:Глава 15
01:07:18.785 : en:Глава 16
01:10:11.666 : en:Глава 17
01:14:47.858 : en:Глава 18
01:18:05.055 : en:Глава 19
01:27:55.896 : en:Глава 20
01:37:09.532 : en:Глава 21
01:39:41.100 : en:Глава 22
01:44:02.611 : en:Глава 23
Профиль  ЛС 
Показать сообщения:     

Вы не можете начинать темы
Вы не можете отвечать на сообщения
Вы не можете редактировать свои сообщения
Вы не можете удалять свои сообщения
Вы не можете голосовать в опросах
Вы не можете прикреплять файлы к сообщениям
Вы не можете скачивать файлы

Текущее время: 23-Авг 15:00
Часовой пояс: UTC + 5