Вилли и крутые тачки / Wheely (Исри Абдул Халим) [2018 г., Мультфильм, комедия, приключения, семейный, полнометражный, BDRip 1080p] Dub чистый звук

Автор Сообщение
rastor ®

Стаж: 11 лет
Сообщений: 4257

Создавать темы rastor ® написал(а)
26-Июн-2019 17:53
Вилли и крутые тачкиWheely Год выпуска: 2018
Страна: Малайзия
Жанр: Мультфильм, комедия, приключения, семейный, полнометражный
Продолжительность: 01:30:13
Перевод: Профессиональный (полное дублирование) чистый звук
Cубтитры: Английские-Режиссер: Исри Абдул Халим-В ролях: Барбара Гудсон, Крис Джай Алекс, Оги Бэнкс, Гэвин Яп, Билл Дж. Готтлиб, Рэймонд Орта, Джо Мюррэй, Дионг Чхэ Лиан, Тамика Уайт, Томас Пэнг-Описание: Вилли — трижды чемпион по уличным гонкам в Гаскет-Сити, готовится к главному соревнованию в своей жизни. Весь мир у его колёс! Но в решающем заезде он не справился с управлением и упал в глубокую реку. Вилли приходиться стать обычным такси и лишь иногда соревноваться с обычными городскими машинами. Но после неожиданного столкновения с прекрасной итальянской машинкой Беллой, он начинает понимать, что помимо жажды скорости в жизни есть более важные вещи…--Качество: BDRip 1080p
Формат: MKV
Видео кодек: H.264
Аудио кодек: AC3, DTS
Видео: 1920х1080 24fps 7172Kbps
Аудио:
Аудио Rus: AC3 48kHz 2ch 256Kbps
Аудио Eng: DTS 48kHz 6ch 1509Kbps

MediaInfo

Формат : Matroska
Версия формата : Version 4 / Version 2
Размер файла : 5,95 Гбайт
Продолжительность : 1 ч. 30 м.
Общий поток : 9443 Кбит/сек
Название фильма : Wheely (2018)
Дата кодирования : UTC 2019-05-24 08:02:48
Программа кодирования : mkvmerge v34.0.0 ('Sight and Seen') 64-bit
Библиотека кодирования : libebml v1.3.7 + libmatroska v1.5.0
Attachements : cover.jpg
Видео
Идентификатор : 1
Формат : AVC
Формат/Информация : Advanced Video Codec
Профиль формата : High@L4.1
Параметр CABAC формата : Да
Параметр ReFrames формата : 4 кадра
Идентификатор кодека : V_MPEG4/ISO/AVC
Продолжительность : 1 ч. 30 м.
Номинальный битрейт : 7172 Кбит/сек
Ширина : 1920 пикселей
Высота : 1080 пикселей
Соотношение сторон : 16:9
Режим частоты кадров : Постоянный
Частота кадров : 24,000 кадра/сек
Цветовое пространство : YUV
Субдискретизация насыщенности : 4:2:0
Битовая глубина : 8 бит
Тип развёртки : Прогрессивная
Бит/(Пиксели*Кадры) : 0.144
Библиотека кодирования : x264 core 157 r2969 d4099dd
Настройки программы : cabac=1 / ref=4 / deblock=1:0:0 / analyse=0x3:0x113 / me=umh / subme=8 / psy=1 / psy_rd=1.00:0.00 / mixed_ref=1 / me_range=16 / chroma_me=1 / trellis=2 / 8x8dct=1 / cqm=0 / deadzone=21,11 / fast_pskip=0 / chroma_qp_offset=-2 / threads=34 / lookahead_threads=5 / sliced_threads=0 / nr=0 / decimate=1 / interlaced=0 / bluray_compat=0 / constrained_intra=0 / bframes=3 / b_pyramid=2 / b_adapt=1 / b_bias=0 / direct=1 / weightb=1 / open_gop=0 / weightp=2 / keyint=250 / keyint_min=24 / scenecut=40 / intra_refresh=0 / rc_lookahead=50 / rc=2pass / mbtree=1 / bitrate=7172 / ratetol=1.0 / qcomp=0.60 / qpmin=0 / qpmax=69 / qpstep=4 / cplxblur=20.0 / qblur=0.5 / ip_ratio=1.40 / aq=1:1.00
Default : Да
Forced : Нет
Аудио #1
Идентификатор : 2
Формат : AAC
Формат/Информация : Advanced Audio Codec
Профиль формата : LC
Идентификатор кодека : A_AAC
Продолжительность : 1 ч. 30 м.
Каналы : 2 канала
Расположение каналов : Front: L R
Частота : 48,0 КГц
Метод сжатия : С потерями
Задержка видео : 1 с. 0 мс.
Заголовок : Russian, AAC, дублированный - IVI
Язык : Russian
Default : Да
Forced : Нет
Аудио #2
Идентификатор : 3
Формат : AC-3
Формат/Информация : Audio Coding 3
Расширение режима : CM (complete main)
Параметр Endianness формата : Big
Идентификатор кодека : A_AC3
Продолжительность : 1 ч. 30 м.
Вид битрейта : Постоянный
Битрейт : 256 Кбит/сек
Каналы : 2 канала
Расположение каналов : Front: L R
Частота : 48,0 КГц
Битовая глубина : 16 бит
Метод сжатия : С потерями
Размер потока : 165 Мбайт (3%)
Заголовок : Russian, AC3, дублированный - IVI
Язык : Russian
Default : Нет
Forced : Нет
Аудио #3
Идентификатор : 4
Формат : DTS
Формат/Информация : Digital Theater Systems
Режим : 16
Параметр Endianness формата : Big
Идентификатор кодека : A_DTS
Продолжительность : 1 ч. 30 м.
Вид битрейта : Постоянный
Битрейт : 1509 Кбит/сек
Каналы : 6 каналов
Расположение каналов : Front: L C R, Side: L R, LFE
Частота : 48,0 КГц
Битовая глубина : 24 бит
Метод сжатия : С потерями
Размер потока : 974 Мбайт (16%)
Заголовок : English
Язык : English
Default : Нет
Forced : Нет
Текст
Идентификатор : 5
Формат : UTF-8
Идентификатор кодека : S_TEXT/UTF8
Идентификатор кодека/Информация : UTF-8 Plain Text
Заголовок : English Full
Язык : English
Default : Нет
Forced : Нет
Меню
00:00:00.000 : en:00:00:00.000
00:08:53.000 : en:00:08:53.000
00:15:26.375 : en:00:15:26.375
00:21:17.708 : en:00:21:17.708
00:28:27.208 : en:00:28:27.208
00:36:49.042 : en:00:36:49.042
00:45:39.500 : en:00:45:39.500
00:53:42.958 : en:00:53:42.958
01:00:29.500 : en:01:00:29.500
01:07:09.125 : en:01:07:09.125
01:18:10.000 : en:01:18:10.000
01:23:56.375 : en:01:23:56.375
Профиль  ЛС 
Показать сообщения:     

Вы не можете начинать темы
Вы не можете отвечать на сообщения
Вы не можете редактировать свои сообщения
Вы не можете удалять свои сообщения
Вы не можете голосовать в опросах
Вы не можете прикреплять файлы к сообщениям
Вы не можете скачивать файлы

Текущее время: 08-Дек 20:36
Часовой пояс: UTC + 5