Константин: Город демонов / Constantine: City of Demons (Даг Мерфи) [2018 г., мультфильм, драма, ужасы, полнометражный, BDRip 720p] MVO

Автор Сообщение
gimaz ®

Стаж: 6 лет
Сообщений: 172

Создавать темы gimaz ® написал(а)
23-Апр-2019 15:20
Константин: Город демонов / Constantine: City of Demon
Год выпуска: 2018
Страна: США, DC Entertainment
Жанр: мультфильм, драма, ужасы, полнометражный
Продолжительность: 01:30:00
Перевод: Профессиональный (многоголосый, закадровый) [ColdFilm]-Режиссер: Даг Мерфи-Описание: Новый мультипликационный фильм ужасов не предназначенный для детского просмотра под названием "Константин: Город демонов" от компании DC Entertainment. Практически каждый новый день, любая минута этого дня, может принести Джону Константину внезапную смерть, причем сам Константин прекрасно об этом знает. Его может убить не только злобная привычка выкуривать десятки сигарет за день, но и также собственная работа. Ведь изгонять демонов из человеческого мира - не самая простая профессия, которую можно было подыскать. Каждое новое столкновение с представителями сил Зла заставляет Константина вступать в смертельную схватку, в которой победить можно не только знанием врага и молитвами, но и старым добрым дробовиком.--Качество: BDRip 720p
Видео: MPEG-4 AVC, 1280x720, 3000 Кбит/с, 23.976 fps, 0.136 bit/pixel
Аудио : русский (AC3, 2 ch, 192 Кбит/с)-

MediaInfo

D:\Торрент\Constantine.City.of.Demons.720p.ColdFilm.mkv
General
Unique ID : 253829560982802533985160892755082786573 (0xBEF5CB93FADCB186A813BE059E88B70D)
Complete name : D:\Торрент\Constantine.City.of.Demons.720p.ColdFilm.mkv
Format : Matroska
Format version : Version 2
File size : 2.00 GiB
Duration : 1h 30mn
Overall bit rate : 3 164 Kbps
Movie name : EVO
Encoded date : UTC 2018-10-08 12:47:40
Writing application : mkvmerge v3.3.0 ('Language') built on Mar 24 2010 14:59:24
Writing library : Lavf54.63.104
Video #1
ID : 1
Format : AVC
Format/Info : Advanced Video Codec
Format profile : Main@L3.1
Format settings, CABAC : Yes
Format settings, ReFrames : 1 frame
Codec ID : V_MPEG4/ISO/AVC
Duration : 1h 30mn
Bit rate : 3 000 Kbps
Width : 1 280 pixels
Height : 720 pixels
Display aspect ratio : 16:9
Frame rate mode : Constant
Frame rate : 23.976 fps
Color space : YUV
Chroma subsampling : 4:2:0
Bit depth : 8 bits
Scan type : Progressive
Bits/(Pixel*Frame) : 0.136
Stream size : 1.84 GiB (92%)
Writing library : x264 core 129
Encoding settings : cabac=1 / ref=1 / deblock=1:0:0 / analyse=0x1:0x131 / me=dia / subme=2 / psy=1 / psy_rd=1.00:0.00 / mixed_ref=0 / me_range=16 / chroma_me=1 / trellis=0 / 8x8dct=0 / cqm=0 / deadzone=21,11 / fast_pskip=1 / chroma_qp_offset=0 / threads=4 / lookahead_threads=1 / sliced_threads=0 / nr=0 / decimate=1 / interlaced=0 / bluray_compat=0 / constrained_intra=0 / bframes=0 / weightp=2 / keyint=250 / keyint_min=25 / scenecut=40 / intra_refresh=0 / rc_lookahead=40 / rc=abr / mbtree=1 / bitrate=3000 / ratetol=1.0 / qcomp=0.60 / qpmin=10 / qpmax=51 / qpstep=4 / ip_ratio=1.41 / aq=1:1.00
Default : No
Forced : No
Audio #2
ID : 2
Format : AC-3
Format/Info : Audio Coding 3
Mode extension : CM (complete main)
Format settings, Endianness : Big
Codec ID : A_AC3
Duration : 1h 30mn
Bit rate mode : Constant
Bit rate : 192 Kbps
Channel(s) : 2 channels
Channel positions : Front: L R
Sampling rate : 48.0 KHz
Bit depth : 16 bits
Compression mode : Lossy
Stream size : 124 MiB (6%)
Default : Yes
Forced : No

Скриншоты



Профиль  ЛС 
Показать сообщения:     

Вы не можете начинать темы
Вы не можете отвечать на сообщения
Вы не можете редактировать свои сообщения
Вы не можете удалять свои сообщения
Вы не можете голосовать в опросах
Вы не можете прикреплять файлы к сообщениям
Вы не можете скачивать файлы

Текущее время: 12-Дек 20:44
Часовой пояс: UTC + 5