Как приручить дракона 3 / How to Train Your Dragon: The Hidden World (Дин ДеБлуа) [2019 г., Мультфильм, фэнтези, комедия, приключения, семейный, BDRip 1080p] Лицензия

Автор Сообщение
rastor ®

Стаж: 11 лет
Сообщений: 4257

Создавать темы rastor ® написал(а)
06-Апр-2019 21:48
Как приручить дракона 3How to Train Your Dragon: The Hidden World Год выпуска: 2019
Страна: США
Жанр: Мультфильм, фэнтези, комедия, приключения, семейный
Продолжительность: 01:44:06
Перевод:
*Профессиональный (полное дублирование)
*Профессиональный (многоголосый) HDRezka Studio
Субтитры: Русские, английские-Режиссер: Дин ДеБлуа-В ролях: Кейт Бланшетт, Джерард Батлер, Джона Хилл, Кит Харингтон, Кристен Уиг, Джей Барушель, Кристофер Минц-Плассе, Америка Феррера, Оулавюр Дарри Оулафссон, Ф. Мюррэй Абрахам, Крэйг Фергюсон, Джастин Руппл-Описание: Когда-то викинги жили в гармонии с драконами. В те времена они делили радость, горе… и последние штаны. Казалось, что так будет всегда, но появление загадочной Дневной Фурии изменило жизнь острова. И теперь Иккинг и Беззубик столкнутся с безжалостным охотником на драконов, жаждущим уничтожить все, что им дорого.--Качество: BDRip 1080p
Формат: MKV
Видео кодек: H.264
Аудио кодек: AC3
Видео: 1920x816 23.98fps 10342Kbps
Аудио:
Аудио Дубляж: 48kHz 6ch 640Kbps
Аудио MVO: 48kHz 2ch 192Kbps
Аудио Eng: 48kHz 6ch 448Kbps

MediaInfo

Format : Matroska
Format version : Version 4
File size : 8.29 GiB
Duration : 1 h 44 min
Overall bit rate : 11.4 Mb/s
Movie name : How to Train Your Dragon The Hidden World 2019 from селезень
Encoded date : UTC 2019-06-10 20:58:20
Writing application : mkvmerge v33.1.0 ('Primrose') 64-bit
Writing library : libebml v1.3.7 + libmatroska v1.5.0
Video
ID : 1
Format : AVC
Format/Info : Advanced Video Codec
Format profile : High@L4.1
Format settings : CABAC / 5 Ref Frames
Format settings, CABAC : Yes
Format settings, Reference : 5 frames
Codec ID : V_MPEG4/ISO/AVC
Duration : 1 h 44 min
Bit rate : 10.1 Mb/s
Width : 1 920 pixels
Height : 816 pixels
Display aspect ratio : 2.35:1
Frame rate mode : Constant
Frame rate : 23.976 (24000/1001) FPS
Color space : YUV
Chroma subsampling : 4:2:0
Bit depth : 8 bits
Scan type : Progressive
Bits/(Pixel*Frame) : 0.270
Stream size : 7.36 GiB (89%)
Title : seleZen
Writing library : x264 core 148 r2705kMod 3f5ed56
Encoding settings : cabac=1 / ref=5 / deblock=1:-2:-2 / analyse=0x3:0x133 / me=umh / subme=10 / psy=1 / fade_compensate=0.00 / psy_rd=1.20:0.07 / mixed_ref=1 / me_range=24 / chroma_me=1 / trellis=2 / 8x8dct=1 / cqm=0 / deadzone=21,11 / fast_pskip=0 / chroma_qp_offset=-3 / threads=12 / lookahead_threads=2 / sliced_threads=0 / nr=0 / decimate=0 / interlaced=0 / bluray_compat=0 / constrained_intra=0 / fgo=0 / bframes=8 / b_pyramid=2 / b_adapt=2 / b_bias=0 / direct=3 / weightb=1 / open_gop=0 / weightp=2 / keyint=240 / keyint_min=23 / scenecut=40 / intra_refresh=0 / rc_lookahead=50 / rc=2pass / mbtree=0 / bitrate=10125 / ratetol=1.0 / qcomp=0.60 / qpmin=0 / qpmax=51 / qpstep=4 / cplxblur=20.0 / qblur=0.5 / vbv_maxrate=50000 / vbv_bufsize=62500 / nal_hrd=none / filler=0 / ip_ratio=1.40 / pb_ratio=1.30 / aq=3:0.80
Language : English
Default : Yes
Forced : No
Audio #1
ID : 2
Format : AC-3
Format/Info : Audio Coding 3
Commercial name : Dolby Digital
Codec ID : A_AC3
Duration : 1 h 44 min
Bit rate mode : Constant
Bit rate : 640 kb/s
Channel(s) : 6 channels
Channel layout : L R C LFE Ls Rs
Sampling rate : 48.0 kHz
Frame rate : 31.250 FPS (1536 SPF)
Bit depth : 16 bits
Compression mode : Lossy
Stream size : 477 MiB (6%)
Title : Dub [License]
Language : Russian
Service kind : Complete Main
Default : Yes
Forced : Yes
Audio #2
ID : 3
Format : AC-3
Format/Info : Audio Coding 3
Commercial name : Dolby Digital
Codec ID : A_AC3
Duration : 1 h 44 min
Bit rate mode : Constant
Bit rate : 192 kb/s
Channel(s) : 2 channels
Channel layout : L R
Sampling rate : 48.0 kHz
Frame rate : 31.250 FPS (1536 SPF)
Bit depth : 16 bits
Compression mode : Lossy
Stream size : 143 MiB (2%)
Title : MVO [HDRezka Studio]
Language : Russian
Service kind : Complete Main
Default : No
Forced : No
Audio #3
ID : 4
Format : AC-3
Format/Info : Audio Coding 3
Commercial name : Dolby Digital
Codec ID : A_AC3
Duration : 1 h 44 min
Bit rate mode : Constant
Bit rate : 448 kb/s
Channel(s) : 6 channels
Channel layout : L R C LFE Ls Rs
Sampling rate : 48.0 kHz
Frame rate : 31.250 FPS (1536 SPF)
Bit depth : 16 bits
Compression mode : Lossy
Stream size : 334 MiB (4%)
Title : Original
Language : English
Service kind : Complete Main
Default : No
Forced : No
Text #1
ID : 5
Format : UTF-8
Codec ID : S_TEXT/UTF8
Codec ID/Info : UTF-8 Plain Text
Duration : 1 h 32 min
Bit rate : 73 b/s
Count of elements : 1054
Stream size : 49.7 KiB (0%)
Title : Full
Language : Russian
Default : No
Forced : No
Text #2
ID : 6
Format : UTF-8
Codec ID : S_TEXT/UTF8
Codec ID/Info : UTF-8 Plain Text
Duration : 1 h 43 min
Bit rate : 62 b/s
Count of elements : 1792
Stream size : 48.0 KiB (0%)
Title : SDH
Language : English
Default : No
Forced : No
Menu
00:00:00.000 : en:Chapter 1
00:05:13.521 : en:Chapter 2
00:10:26.834 : en:Chapter 3
00:14:52.224 : en:Chapter 4
00:20:33.065 : en:Chapter 5
00:24:38.685 : en:Chapter 6
00:28:40.885 : en:Chapter 7
00:31:10.118 : en:Chapter 8
00:37:35.127 : en:Chapter 9
00:44:38.550 : en:Chapter 10
00:47:53.579 : en:Chapter 11
00:53:11.021 : en:Chapter 12
00:57:36.286 : en:Chapter 13
01:01:25.056 : en:Chapter 14
01:08:55.923 : en:Chapter 15
01:14:17.703 : en:Chapter 16
01:19:31.141 : en:Chapter 17
01:23:23.289 : en:Chapter 18
01:28:24.716 : en:Chapter 19
01:33:53.377 : en:Chapter 20


Последний раз редактировалось: rastor (2019-06-11 16:05), всего редактировалось 2 раз(а)
Профиль  ЛС 
Егорище

Стаж: 11 лет
Сообщений: 22

Создавать темы Егорище написал(а)
13-Апр-2019 02:25 (спустя 6 дней)
Крутая раздача спасибо бро!
Профиль  ЛС 
Igneous Q

Стаж: 10 лет
Сообщений: 117

Создавать темы Igneous Q написал(а)
13-Апр-2019 21:23 (спустя 18 часов)
Согласен. Растор просто топ. Качество и хороший звук. Спасибо за твой труд.
Профиль  ЛС 
gron999

Стаж: 10 лет
Сообщений: 55
Откуда: Россия

Создавать темы gron999 написал(а)
18-Апр-2019 15:29 (спустя 4 дня)
Спасибо! Смотрели в КТ, понравился мульт!
Профиль  ЛС 
rastor ®

Стаж: 11 лет
Сообщений: 4257

Создавать темы rastor ® написал(а)
11-Июн-2019 16:06 (спустя 1 месяц 23 дня)
Торрент-файл обновлен.
Профиль  ЛС 
Показать сообщения:     

Вы не можете начинать темы
Вы не можете отвечать на сообщения
Вы не можете редактировать свои сообщения
Вы не можете удалять свои сообщения
Вы не можете голосовать в опросах
Вы не можете прикреплять файлы к сообщениям
Вы не можете скачивать файлы

Текущее время: 09-Дек 09:38
Часовой пояс: UTC + 5