Ральф против интернета / Ralph Breaks the Internet (Фил Джонстон, Рич Мур) [2018 г., Мультфильм, фэнтези, комедия, приключения, семейный, полнометражный, BDRip 1080p] Лицензия

Автор Сообщение
rastor ®

Стаж: 11 лет
Сообщений: 4257

Создавать темы rastor ® написал(а)
15-Фев-2019 01:59
Ральф против интернетаRalph Breaks the Internet Год выпуска: 2018
Страна: США
Жанр: Мультфильм, фэнтези, комедия, приключения, семейный, полнометражный
Продолжительность: 01:53:31
Перевод: Профессиональный (полное дублирование)
Субтитры: Русские, английские-Режиссер: Фил Джонстон, Рич Мур-В ролях: Джон С. Райлли, Сара Силверман, Галь Гадот, Тараджи П. Хенсон, Джек МакБрайер, Джейн Линч, Алан Тьюдик, Альфред Молина, Эд О`Нил, Шон Джамброун-Описание: И вот снова они: нолики и единички, крошечные пылинки в нетленной вселенной. Кибергонщица и виртуальный Громила - неразлучные друзья, перед которыми, волею игрового божества, открывается параллельная цифровая реальность: безграничное пространство Интернета, наделённое своими правилами, сложностями, заманчивыми и запретными территориями. И конечно - соблазнами. И вот они снова на пороге головокружительных приключений, милых курьёзов или мнимых, но оттого не менее потрясающих и жестких опасностей. Эти неподражаемые и выразительные герои оставят яркие отпечатки веселья, оттенки грусти и шлейфы трогательных огоньков, сверкающих искрами запредельного драйва на захватывающих и непредсказуемых сетевых разворотах. Потрясный Глюк!- -Качество: BDRip 1080p
Формат: MKV
Видео кодек: H.264
Аудио кодек: AC3, DTS
Видео: 1920x804 23.98fps 13107kbps
Аудио:
Аудио Rus: AC3 48kHz 6ch 384kbps
Аудио Eng: DTS 48kHz 6ch 1509kbps

MediaInfo

Формат : Matroska
Версия формата : Version 4 / Version 2
Размер файла : 11,6 Гбайт
Продолжительность : 1 ч. 52 м.
Общий поток : 14,7 Мбит/сек
Название фильма : Ralph Breaks The Internet 2018
Дата кодирования : UTC 2019-02-17 04:41:38
Программа кодирования : mkvmerge v29.0.0 ('Like It Or Not') 64-bit
Библиотека кодирования : libebml v1.3.6 + libmatroska v1.4.9
Видео
Идентификатор : 1
Формат : AVC
Формат/Информация : Advanced Video Codec
Профиль формата : High@L4.1
Параметр CABAC формата : Да
Параметр ReFrames формата : 5 кадров
Идентификатор кодека : V_MPEG4/ISO/AVC
Продолжительность : 1 ч. 52 м.
Битрейт : 12,8 Мбит/сек
Ширина : 1920 пикселей
Высота : 804 пикселя
Соотношение сторон : 2,40:1
Режим частоты кадров : Постоянный
Частота кадров : 23,976 кадра/сек
Цветовое пространство : YUV
Субдискретизация насыщенности : 4:2:0
Битовая глубина : 8 бит
Тип развёртки : Прогрессивная
Бит/(Пиксели*Кадры) : 0.346
Размер потока : 9,83 Гбайт (85%)
Заголовок : HDC
Библиотека кодирования : x264 core 148 r2665kMod a01e339
Настройки программы : cabac=1 / ref=5 / deblock=1:-1:-1 / analyse=0x3:0x133 / me=umh / subme=11 / psy=1 / fade_compensate=0.00 / psy_rd=0.70:0.00 / mixed_ref=1 / me_range=48 / chroma_me=1 / trellis=2 / 8x8dct=1 / cqm=0 / deadzone=21,11 / fast_pskip=0 / chroma_qp_offset=-2 / threads=24 / lookahead_threads=4 / sliced_threads=0 / nr=0 / decimate=0 / interlaced=0 / bluray_compat=0 / constrained_intra=0 / fgo=0 / bframes=8 / b_pyramid=2 / b_adapt=2 / b_bias=0 / direct=3 / weightb=1 / open_gop=0 / weightp=2 / keyint=240 / keyint_min=24 / scenecut=40 / intra_refresh=0 / rc=2pass / mbtree=0 / bitrate=12800 / ratetol=1.0 / qcomp=0.70 / qpmin=0 / qpmax=69 / qpstep=4 / cplxblur=20.0 / qblur=0.5 / ip_ratio=1.10 / pb_ratio=1.20 / aq=3:1.10
Язык : English
Default : Да
Forced : Нет
Аудио #1
Идентификатор : 2
Формат : AC-3
Формат/Информация : Audio Coding 3
Расширение режима : CM (complete main)
Параметр Endianness формата : Big
Идентификатор кодека : A_AC3
Продолжительность : 1 ч. 52 м.
Вид битрейта : Постоянный
Битрейт : 384 Кбит/сек
Каналы : 6 каналов
Расположение каналов : Front: L C R, Side: L R, LFE
Частота : 48,0 КГц
Битовая глубина : 16 бит
Метод сжатия : С потерями
Размер потока : 309 Мбайт (3%)
Заголовок : iTunes
Язык : Russian
Default : Да
Forced : Да
Аудио #2
Идентификатор : 3
Формат : DTS
Формат/Информация : Digital Theater Systems
Режим : 16
Параметр Endianness формата : Big
Идентификатор кодека : A_DTS
Продолжительность : 1 ч. 52 м.
Вид битрейта : Постоянный
Битрейт : 1509 Кбит/сек
Каналы : 6 каналов
Расположение каналов : Front: L C R, Side: L R, LFE
Частота : 48,0 КГц
Битовая глубина : 24 бит
Метод сжатия : С потерями
Размер потока : 1,19 Гбайт (10%)
Заголовок : Original
Язык : English
Default : Нет
Forced : Нет
Текст #1
Идентификатор : 4
Формат : UTF-8
Идентификатор кодека : S_TEXT/UTF8
Идентификатор кодека/Информация : UTF-8 Plain Text
Заголовок : Forced
Язык : Russian
Default : Да
Forced : Да
Текст #2
Идентификатор : 5
Формат : UTF-8
Идентификатор кодека : S_TEXT/UTF8
Идентификатор кодека/Информация : UTF-8 Plain Text
Заголовок : Full
Язык : Russian
Default : Нет
Forced : Нет
Текст #3
Идентификатор : 6
Формат : UTF-8
Идентификатор кодека : S_TEXT/UTF8
Идентификатор кодека/Информация : UTF-8 Plain Text
Заголовок : Full
Язык : English
Default : Нет
Forced : Нет
Текст #4
Идентификатор : 7
Формат : UTF-8
Идентификатор кодека : S_TEXT/UTF8
Идентификатор кодека/Информация : UTF-8 Plain Text
Заголовок : SDH
Язык : English
Default : Нет
Forced : Нет
Меню
00:00:00.000 : en:00:00:00.000
00:04:09.666 : en:00:04:09.666
00:11:07.417 : en:00:11:07.417
00:17:28.923 : en:00:17:28.923
00:23:43.881 : en:00:23:43.881
00:27:54.589 : en:00:27:54.589
00:34:18.807 : en:00:34:18.807
00:41:39.956 : en:00:41:39.956
00:51:27.709 : en:00:51:27.709
00:58:04.606 : en:00:58:04.606
01:01:50.957 : en:01:01:50.957
01:06:17.306 : en:01:06:17.306
01:12:31.806 : en:01:12:31.806
01:19:10.120 : en:01:19:10.120
01:27:24.030 : en:01:27:24.030
01:38:26.775 : en:01:38:26.775



Последний раз редактировалось: rastor (2019-02-17 10:07), всего редактировалось 4 раз(а)
Профиль  ЛС 
Heinz Klomphenshtock

Стаж: 9 лет 9 месяцев
Сообщений: 90
Откуда: ??

Создавать темы Heinz Klomphenshtock написал(а)
15-Фев-2019 11:31 (спустя 9 часов)
О, отлично! Первый был офигенный. Надеюсь, этот тоже не подкачал.
Профиль  ЛС 
wrx

Стаж: 1 год 11 месяцев
Сообщений: 13

Создавать темы wrx написал(а)
15-Фев-2019 18:40 (спустя 7 часов)
а первый какой?
Профиль  ЛС 
rastor ®

Стаж: 11 лет
Сообщений: 4257

Создавать темы rastor ® написал(а)
17-Фев-2019 10:05 (спустя 1 день 15 часов)
Торрент-файл обновлен на BDRip 1080p
Профиль  ЛС 
ruslanezh

Стаж: 10 лет
Сообщений: 14
Откуда: Уфа

Создавать темы ruslanezh написал(а)
21-Фев-2019 23:27 (спустя 4 дня)
Спасибо большое!
Глюк)))
Профиль  ЛС 
gron999

Стаж: 10 лет
Сообщений: 55
Откуда: Россия

Создавать темы gron999 написал(а)
24-Июн-2019 00:20 (спустя 4 месяца 2 дня)
5284900О, отлично! Первый был офигенный. Надеюсь, этот тоже не подкачал.
Увы, подкачал(( Этот не затронул никак... разочарование. Скучно. Некоторые темы в мульте вообще не понравились.
Первый в коллекции, не раз с удовольствием пересматривали, а этот - не охота и второй раз смотреть. Грустно, но в топку.
Профиль  ЛС 
Показать сообщения:     

Вы не можете начинать темы
Вы не можете отвечать на сообщения
Вы не можете редактировать свои сообщения
Вы не можете удалять свои сообщения
Вы не можете голосовать в опросах
Вы не можете прикреплять файлы к сообщениям
Вы не можете скачивать файлы

Текущее время: 09-Дек 10:04
Часовой пояс: UTC + 5