Снежная Королева: Зазеркалье (Алексей Цицилин, Роберт Ленс) [2018, мультфильм, комедия, приключения, семейный, фэнтези, WEB-DL 720p] [Лицензия]

Автор Сообщение
Friends ®

Стаж: 11 месяцев 17 дней
Сообщений: 103

Создавать темы Friends ® написал(а)
13-Фев-2019 09:09
Снежная Королева: Зазеркалье- Страна: Россия
Жанр: мультфильм, комедия, приключения, семейный, фэнтези
Год выпуска: 2018
Продолжительность: 01:16:34
Режиссер: Алексей Цицилин, Роберт Ленс
Роли озвучивали: Лина Иванова, Владимир Зайцев, Ольга Зубкова, Никита Прозоровский, Всеволод Кузнецов, Ляйсан Утяшева, Ирина Безрукова, Надежда Ангарская, Николай Быстров
Описание: Могущественный король Харальд чуть не потерял семью из-за Снежной Королевы. Он находит способ очистить мир от волшебства - все обладатели магических способностей отныне заточены в Зазеркалье. Остановить его и не дать сказке навсегда исчезнуть из нашего мира может только Герда. Ведь ее главная сила не в волшебстве, а вере в добро и дружбу. В новом приключении на помощь Герде придут тролли, пираты и даже сама Снежная Королева.- -Качество видео: WEB-DL 720p
Формат видео: MKV (x264)
Видео: AVC at 3912 Кбит/сек 960 x 536 (2.388) at 25.000 fps
Аудио: AC-3 at 384 6 каналов, 48,0 КГц

MI

Общее
Уникальный идентификатор : 236769685404362470498322677777803066805 (0xB2202EC5B630345498C4B43817253DB5)
Полное имя : C:\Прочее\The.Snow.Queen.The.Looking.GlassWEB-DL720p.ELEKTRI4KA.UNIONGANG.mkv
Формат : Matroska
Версия формата : Version 2
Размер файла : 2,55 Гбайт
Продолжительность : 1 ч. 23 м.
Общий поток : 4383 Кбит/сек
Название фильма : uniongang.org
Дата кодирования : UTC 2019-02-12 18:44:04
Программа кодирования : mkvmerge v7.8.0 ('River Man') 32bit built on Apr 3 2015 12:11:22
Библиотека кодирования : libebml v1.3.1 + libmatroska v1.4.2
Видео
Идентификатор : 2
Формат : AVC
Формат/Информация : Advanced Video Codec
Профиль формата : Main@L3.1
Настройки формата : 2 Ref Frames
Параметр CABAC формата : Нет
Параметр RefFrames формата : 2 кадра
Идентификатор кодека : V_MPEG4/ISO/AVC
Продолжительность : 1 ч. 23 м.
Битрейт : 3912 Кбит/сек
Ширина : 960 пикселей
Высота : 536 пикселей
Соотношение сторон : 2,40:1
Режим частоты кадров : Постоянный
Частота кадров : 25,000 кадров/сек
Цветовое пространство : YUV
Субдискретизация насыщенности : 4:2:0
Битовая глубина : 8 бит
Тип развёртки : Прогрессивная
Бит/(Пиксели*Кадры) : 0.304
Размер потока : 2,28 Гбайт (89%)
Язык : English
Default : Да
Forced : Нет
Цветовой диапазон : Limited
Основные цвета : BT.709
Характеристики трансфера : BT.709
Коэффициенты матрицы : BT.709
Аудио
Идентификатор : 1
Формат : AC-3
Формат/Информация : Audio Coding 3
Коммерческое название : Dolby Digital
Идентификатор кодека : A_AC3
Продолжительность : 1 ч. 23 м.
Вид битрейта : Постоянный
Битрейт : 384 Кбит/сек
Каналы : 6 каналов
Channel layout : L R C LFE Ls Rs
Частота : 48,0 КГц
Частота кадров : 31,250 кадров/сек (1536 SPF)
Битовая глубина : 16 бит
Метод сжатия : С потерями
Размер потока : 229 Мбайт (9%)
Заголовок : uniongang.org
Язык : Russian
ServiceKind/String : Complete Main
Default : Да
Forced : Нет
Меню
00:00:00.000 : en:Глава 1
00:05:03.080 : en:Глава 2
00:09:57.400 : en:Глава 3
00:14:21.240 : en:Глава 4
00:19:11.960 : en:Глава 5
00:24:50.720 : en:Глава 6
00:29:49.640 : en:Глава 7
00:35:07.519 : en:Глава 8
00:41:00.359 : en:Глава 9
00:47:09.719 : en:Глава 10
00:52:03.119 : en:Глава 11
00:57:20.158 : en:Глава 12
01:01:07.598 : en:Глава 13
01:05:57.637 : en:Глава 14
01:11:37.156 : en:Глава 15

Скриншоты



]
Профиль  ЛС 
Показать сообщения:     

Вы не можете начинать темы
Вы не можете отвечать на сообщения
Вы не можете редактировать свои сообщения
Вы не можете удалять свои сообщения
Вы не можете голосовать в опросах
Вы не можете прикреплять файлы к сообщениям
Вы не можете скачивать файлы

Текущее время: 21-Ноя 00:44
Часовой пояс: UTC + 5