Восстание зловещих мертвецов / Evil Dead Rise (Ли Кронин) [2023 г., Ужасы, мистика, WEB-DL 1080p] Лицензия

Автор Сообщение
rastor ®

Стаж: 15 лет
Сообщений: 5559

Создавать темы rastor ® написал(а)
23-Май-2023 10:56
Восстание зловещих мертвецовEvil Dead Rise Год выпуска: 2023
Страна: Новая Зеландия, США, Ирландия
Жанр: Ужасы, мистика
Продолжительность: 01:36:25
Перевод: Профессиональный (полное дублирование)
Субтитры: Русские, английские, украинские-Режиссер: Ли Кронин-В ролях: Мирабай Пиз, Ричард Краучли, Анна-Мари Томас, Лили Салливан, Ной Пол, Алисса Сазерленд, Габриэль Экхолс, Моргана Дейвис, Нелл Фишер, Билли Рейнольдс-Маккарти-Описание: Американский сверхъестественный фильм ужасов, режиссёра и сценариста Ли Кронина. Сюжет повествует о двух сестрах, которые не поддерживают связь друг с другом. Их встречу прерывает появление демонов, способных завладеть человеческими телами. Столкнувшись с самой ужасной версией семьи, которую только можно себе представить, сестры вынуждены вступить в жестокую борьбу за выживание.--Качество: WEB-DL 1080p
Формат: MKV
Видео кодек: H.264
Аудио кодек: AC3
Видео: 1920x804 23.98fps 5219Kbps
Аудио:
Аудио Rus: 48kHz 6ch 384Kbps
Аудио Eng: 48kHz 6ch 768Kbps

MediaInfo

Format : Matroska
Format version : Version 4
File size : 4.29 GiB
Duration : 1 h 36 min
Overall bit rate : 6 374 kb/s
Frame rate : 23.976 FPS
Movie name : Evil Dead Rise 2023 from seleZen
Encoded date : 2023-05-22 14:04:01 UTC
Writing application : mkvmerge v59.0.0 ('Shining Star') 64-bit
Writing library : libebml v1.4.2 + libmatroska v1.6.4
Video
ID : 1
Format : AVC
Format/Info : Advanced Video Codec
Format profile : High@L4.1
Format settings : CABAC / 5 Ref Frames
Format settings, CABAC : Yes
Format settings, Reference : 5 frames
Codec ID : V_MPEG4/ISO/AVC
Duration : 1 h 36 min
Bit rate : 5 219 kb/s
Width : 1 920 pixels
Height : 804 pixels
Display aspect ratio : 2.40:1
Frame rate mode : Constant
Frame rate : 23.976 (24000/1001) FPS
Color space : YUV
Chroma subsampling : 4:2:0
Bit depth : 8 bits
Scan type : Progressive
Bits/(Pixel*Frame) : 0.141
Stream size : 3.52 GiB (82%)
Title : -=DoMiNo=-
Writing library : x264 core 164 r3107+55M 1028c06 t_mod_New | by -=DoMiNo=- | X86_64]
Encoding settings : cabac=1 / ref=5 / deblock=1:-2:-1 / analyse=0x3:0x133 / me=umh / subme=10 / psy=1 / fade_compensate=0.00 / psy_rd=1.02:0.15 / mixed_ref=1 / me_range=32 / chroma_me=1 / trellis=2 / 8x8dct=1 / cqm=0 / deadzone=21,11 / fast_pskip=0 / chroma_qp_offset=-3 / threads=24 / lookahead_threads=6 / sliced_threads=0 / nr=0 / decimate=1 / interlaced=0 / bluray_compat=0 / constrained_intra=0 / fgo=0 / bframes=12 / b_pyramid=2 / b_adapt=2 / b_bias=0 / direct=3 / weightb=1 / open_gop=0 / weightp=2 / keyint=240 / keyint_min=23 / scenecut=40 / intra_refresh=0 / rc_lookahead=60 / rc=crf / mbtree=0 / crf=18.8000 / qcomp=0.60 / qpmin=0:0:0 / qpmax=69:69:69 / qpstep=4 / vbv_maxrate=50000 / vbv_bufsize=62500 / crf_max=0.0 / nal_hrd=none / filler=0 / ip_ratio=1.35 / pb_ratio=1.22 / aq=1:0.90 / aq-sensitivity=10.00 / aq-factor=1.00:1.00:1.00 / aq2=0 / aq3=0
Language : English
Default : Yes
Forced : No
Color range : Limited
Color primaries : BT.709
Transfer characteristics : BT.709
Matrix coefficients : BT.709
Audio #1
ID : 2
Format : AC-3
Format/Info : Audio Coding 3
Commercial name : Dolby Digital
Codec ID : A_AC3
Duration : 1 h 36 min
Bit rate mode : Constant
Bit rate : 384 kb/s
Channel(s) : 6 channels
Channel layout : L R C LFE Ls Rs
Sampling rate : 48.0 kHz
Frame rate : 31.250 FPS (1536 SPF)
Compression mode : Lossy
Stream size : 265 MiB (6%)
Title : Dub
Language : Russian
Service kind : Complete Main
Default : Yes
Forced : Yes
Audio #2
ID : 3
Format : E-AC-3 JOC
Format/Info : Enhanced AC-3 with Joint Object Coding
Commercial name : Dolby Digital Plus with Dolby Atmos
Codec ID : A_EAC3
Duration : 1 h 36 min
Bit rate mode : Constant
Bit rate : 768 kb/s
Channel(s) : 6 channels
Channel layout : L R C LFE Ls Rs
Sampling rate : 48.0 kHz
Frame rate : 31.250 FPS (1536 SPF)
Compression mode : Lossy
Stream size : 530 MiB (12%)
Title : Original
Language : English
Service kind : Complete Main
Default : No
Forced : No
Complexity index : 16
Number of dynamic objects : 15
Bed channel count : 1 channel
Bed channel configuration : LFE
Text #1
ID : 4
Format : UTF-8
Codec ID : S_TEXT/UTF8
Codec ID/Info : UTF-8 Plain Text
Duration : 1 h 0 min
Bit rate : 1 b/s
Frame rate : 0.004 FPS
Count of elements : 16
Stream size : 535 Bytes (0%)
Title : Forced [Off.]
Language : Russian
Default : Yes
Forced : Yes
Text #2
ID : 5
Format : UTF-8
Codec ID : S_TEXT/UTF8
Codec ID/Info : UTF-8 Plain Text
Duration : 1 h 27 min
Bit rate : 43 b/s
Frame rate : 0.120 FPS
Count of elements : 635
Stream size : 28.2 KiB (0%)
Title : Full [misanthrope]
Language : Russian
Default : No
Forced : No
Text #3
ID : 6
Format : UTF-8
Codec ID : S_TEXT/UTF8
Codec ID/Info : UTF-8 Plain Text
Duration : 1 h 35 min
Bit rate : 40 b/s
Frame rate : 0.111 FPS
Count of elements : 636
Stream size : 28.0 KiB (0%)
Title : Full [Off.]
Language : Ukrainian
Default : No
Forced : No
Text #4
ID : 7
Format : UTF-8
Codec ID : S_TEXT/UTF8
Codec ID/Info : UTF-8 Plain Text
Duration : 1 h 27 min
Bit rate : 27 b/s
Frame rate : 0.124 FPS
Count of elements : 656
Stream size : 17.9 KiB (0%)
Title : Full
Language : English
Default : No
Forced : No
Text #5
ID : 8
Format : UTF-8
Codec ID : S_TEXT/UTF8
Codec ID/Info : UTF-8 Plain Text
Duration : 1 h 36 min
Bit rate : 38 b/s
Frame rate : 0.191 FPS
Count of elements : 1103
Stream size : 26.8 KiB (0%)
Title : SDH
Language : English
Default : No
Forced : No
Menu
00:00:00.000 : en:Chapter 01
00:11:02.871 : en:Chapter 02
00:21:20.030 : en:Chapter 03
00:30:10.352 : en:Chapter 04
00:39:46.720 : en:Chapter 05
00:50:15.098 : en:Chapter 06
01:00:02.143 : en:Chapter 07
01:09:21.327 : en:Chapter 08
01:18:26.164 : en:Chapter 09
01:30:09.909 : en:Chapter 10
Профиль  ЛС 
Panzerfaust

Стаж: 15 лет
Сообщений: 528
Откуда: ANTARCTICA

Создавать темы Panzerfaust написал(а)
18-Июл-2023 04:56 (спустя 1 месяц 25 дней)
Ни че так фильм, с краской имитацией крови переборщили малеха.
Профиль  ЛС 
Показать сообщения:     

Вы не можете начинать темы
Вы не можете отвечать на сообщения
Вы не можете редактировать свои сообщения
Вы не можете удалять свои сообщения
Вы не можете голосовать в опросах
Вы не можете прикреплять файлы к сообщениям
Вы не можете скачивать файлы

Текущее время: 20-Июл 15:00
Часовой пояс: UTC + 5