Стражи Галактики. Часть 3 / Guardians of the Galaxy Vol. 3 (Джеймс Ганн) [2023 г., Фантастика, боевик, комедия, приключения, BDRip 1080p IMAX] Лицензия

Автор Сообщение
rastor ®

Стаж: 15 лет
Сообщений: 5559

Создавать темы rastor ® написал(а)
14-Май-2023 16:50
Стражи Галактики. Часть 3Guardians of the Galaxy Vol. 3 Год выпуска: 2023
Страна: США, Канада, Новая Зеландия
Жанр: Фантастика, боевик, комедия, приключения
Продолжительность: 02:30:02
Перевод:
*Профессиональный (полное дублирование) MovieDalen
*Профессиональный (полное дублирование) Red Head Sound
*Профессиональный (многоголосый, закадровый) HDRezka Studio
*Профессиональный (многоголосый, закадровый) Jaskier
*Профессиональный (многоголосый, закадровый) LostFilm
*Профессиональный (многоголосый, закадровый) TVShows
Cубтитры: Русские, английские-Режиссер: Джеймс Ганн-В ролях: Крис Прэтт, Зои Салдана, Дэйв Батиста, Вин Дизель, Брэдли Купер, Карен Гиллан, Пом Клементьефф, Элизабет Дебики, Шон Ганн, Сильвестр Сталлоне-Описание: Питер Квилл никак не может смириться с потерей Гаморы и теперь вместе со Стражами Галактики вынужден отправиться на очередную миссию по защите Вселенной.--Качество: WEB-DL 1080p
Формат: MKV
Видео кодек: H.264
Аудио кодек: AC3
Видео: 1920x1012 23.98fps 17817Kbps
Аудио:
Аудио MovieDalen: 48kHz 2ch 192Kbps
Аудио Red Head Sound: 48kHz 6ch 448Kbps
Аудио HDRezka Studio: 48kHz 6ch 448Kbps
Аудио Jaskier: 48kHz 6ch 384Kbps
Аудио LostFilm: 48kHz 6ch 384Kbps
Аудио TVShows: 48kHz 6ch 384Kbps
Аудио Eng: 48kHz 6ch 640Kbps

MediaInfo

Format : Matroska
Format version : Version 4
File size : 21.3 GiB
Duration : 2 h 30 min
Overall bit rate : 20.3 Mb/s
Frame rate : 23.976 FPS
Movie name : Guardians.of.the.Galaxy.Vol.3.2023.seleZen
Encoded date : 2023-07-25 05:30:21 UTC
Writing application : mkvmerge v77.0 ('Elemental') 64-bit
Writing library : libebml v1.4.4 + libmatroska v1.7.1
Cover : Yes
Attachments : cover.jpg / small_cover.jpg
Video
ID : 1
Format : AVC
Format/Info : Advanced Video Codec
Format profile : High@L4.1
Format settings : CABAC / 4 Ref Frames
Format settings, CABAC : Yes
Format settings, Reference : 4 frames
Codec ID : V_MPEG4/ISO/AVC
Duration : 2 h 30 min
Bit rate : 17.4 Mb/s
Width : 1 920 pixels
Height : 1 012 pixels
Display aspect ratio : 1.897
Frame rate mode : Constant
Frame rate : 23.976 (24000/1001) FPS
Color space : YUV
Chroma subsampling : 4:2:0
Bit depth : 8 bits
Scan type : Progressive
Bits/(Pixel*Frame) : 0.374
Stream size : 18.3 GiB (86%)
Title : MTeam
Writing library : x264 core 157 r2938 2b00a84 TnP@MTeam Mod
Encoding settings : cabac=1 / ref=4 / deblock=1:-3:-3 / analyse=0x3:0x133 / me=umh / subme=10 / psy=1 / psy_rd=1.05:0.00 / mixed_ref=1 / me_range=32 / chroma_me=1 / trellis=2 / 8x8dct=1 / cqm=0 / deadzone=21,11 / fast_pskip=0 / chroma_qp_offset=-2 / threads=12 / lookahead_threads=2 / sliced_threads=0 / nr=0 / decimate=0 / interlaced=0 / bluray_compat=0 / constrained_intra=0 / bframes=8 / b_pyramid=2 / b_adapt=2 / b_bias=0 / direct=3 / weightb=1 / open_gop=0 / weightp=2 / keyint=250 / keyint_min=24 / scenecut=40 / intra_refresh=0 / rc_lookahead=250 / rc=crf / mbtree=0 / crf=16.8 / qcomp=0.60 / qpmin=0 / qpmax=69 / qpstep=4 / vbv_maxrate=62500 / vbv_bufsize=78125 / crf_max=0.0 / nal_hrd=none / filler=0 / ip_ratio=1.30 / pb_ratio=1.20 / aq=3:0.80
Language : English
Default : Yes
Forced : No
Color range : Limited
Color primaries : BT.709
Matrix coefficients : BT.709
Audio #1
ID : 2
Format : AC-3
Format/Info : Audio Coding 3
Commercial name : Dolby Digital
Codec ID : A_AC3
Duration : 2 h 30 min
Bit rate mode : Constant
Bit rate : 192 kb/s
Channel(s) : 2 channels
Channel layout : L R
Sampling rate : 48.0 kHz
Frame rate : 31.250 FPS (1536 SPF)
Compression mode : Lossy
Stream size : 206 MiB (1%)
Title : DUB - MovieDalen
Language : Russian
Service kind : Complete Main
Default : Yes
Forced : Yes
Audio #2
ID : 3
Format : AC-3
Format/Info : Audio Coding 3
Commercial name : Dolby Digital
Codec ID : A_AC3
Duration : 2 h 30 min
Bit rate mode : Constant
Bit rate : 448 kb/s
Channel(s) : 6 channels
Channel layout : L R C LFE Ls Rs
Sampling rate : 48.0 kHz
Frame rate : 31.250 FPS (1536 SPF)
Compression mode : Lossy
Stream size : 481 MiB (2%)
Title : DUB - Red Head Sound
Language : Russian
Service kind : Complete Main
Default : No
Forced : No
Audio #3
ID : 4
Format : AC-3
Format/Info : Audio Coding 3
Commercial name : Dolby Digital
Codec ID : A_AC3
Duration : 2 h 30 min
Bit rate mode : Constant
Bit rate : 448 kb/s
Channel(s) : 6 channels
Channel layout : L R C LFE Ls Rs
Sampling rate : 48.0 kHz
Frame rate : 31.250 FPS (1536 SPF)
Compression mode : Lossy
Stream size : 481 MiB (2%)
Title : HDRezka Studio
Language : Russian
Service kind : Complete Main
Default : No
Forced : No
Audio #4
ID : 5
Format : AC-3
Format/Info : Audio Coding 3
Commercial name : Dolby Digital
Codec ID : A_AC3
Duration : 2 h 30 min
Bit rate mode : Constant
Bit rate : 384 kb/s
Channel(s) : 6 channels
Channel layout : L R C LFE Ls Rs
Sampling rate : 48.0 kHz
Frame rate : 31.250 FPS (1536 SPF)
Compression mode : Lossy
Stream size : 412 MiB (2%)
Title : Jaskier
Language : Russian
Service kind : Complete Main
Default : No
Forced : No
Audio #5
ID : 6
Format : AC-3
Format/Info : Audio Coding 3
Commercial name : Dolby Digital
Codec ID : A_AC3
Duration : 2 h 30 min
Bit rate mode : Constant
Bit rate : 384 kb/s
Channel(s) : 2 channels
Channel layout : L R
Sampling rate : 48.0 kHz
Frame rate : 31.250 FPS (1536 SPF)
Compression mode : Lossy
Stream size : 412 MiB (2%)
Title : LostFilm
Language : Russian
Service kind : Complete Main
Default : No
Forced : No
Audio #6
ID : 7
Format : AC-3
Format/Info : Audio Coding 3
Commercial name : Dolby Digital
Codec ID : A_AC3
Duration : 2 h 30 min
Bit rate mode : Constant
Bit rate : 384 kb/s
Channel(s) : 6 channels
Channel layout : L R C LFE Ls Rs
Sampling rate : 48.0 kHz
Frame rate : 31.250 FPS (1536 SPF)
Compression mode : Lossy
Stream size : 412 MiB (2%)
Title : TVShows
Language : Russian
Service kind : Complete Main
Default : No
Forced : No
Audio #7
ID : 8
Format : AC-3
Format/Info : Audio Coding 3
Commercial name : Dolby Digital
Codec ID : A_AC3
Duration : 2 h 30 min
Bit rate mode : Constant
Bit rate : 640 kb/s
Channel(s) : 6 channels
Channel layout : L R C LFE Ls Rs
Sampling rate : 48.0 kHz
Frame rate : 31.250 FPS (1536 SPF)
Compression mode : Lossy
Stream size : 687 MiB (3%)
Title : Original
Language : English
Service kind : Complete Main
Default : No
Forced : No
Text #1
ID : 9
Format : UTF-8
Codec ID : S_TEXT/UTF8
Codec ID/Info : UTF-8 Plain Text
Duration : 2 h 25 min
Bit rate : 0 b/s
Frame rate : 0.001 FPS
Count of elements : 10
Stream size : 630 Bytes (0%)
Title : Forced (MovieDalen)
Language : Russian
Default : Yes
Forced : Yes
Text #2
ID : 10
Format : UTF-8
Codec ID : S_TEXT/UTF8
Codec ID/Info : UTF-8 Plain Text
Duration : 2 h 27 min
Bit rate : 2 b/s
Frame rate : 0.006 FPS
Count of elements : 56
Stream size : 3.19 KiB (0%)
Title : Forced (HDRezka Studio)
Language : Russian
Default : No
Forced : No
Text #3
ID : 11
Format : UTF-8
Codec ID : S_TEXT/UTF8
Codec ID/Info : UTF-8 Plain Text
Duration : 2 h 27 min
Bit rate : 63 b/s
Frame rate : 0.183 FPS
Count of elements : 1623
Stream size : 68.7 KiB (0%)
Title : Full (Off.)
Language : Russian
Default : No
Forced : No
Text #4
ID : 12
Format : UTF-8
Codec ID : S_TEXT/UTF8
Codec ID/Info : UTF-8 Plain Text
Duration : 2 h 29 min
Bit rate : 68 b/s
Frame rate : 0.180 FPS
Count of elements : 1617
Stream size : 75.4 KiB (0%)
Title : Full (Cool Story Blog)
Language : Russian
Default : No
Forced : No
Text #5
ID : 13
Format : UTF-8
Codec ID : S_TEXT/UTF8
Codec ID/Info : UTF-8 Plain Text
Duration : 2 h 27 min
Bit rate : 53 b/s
Frame rate : 0.233 FPS
Count of elements : 2064
Stream size : 57.6 KiB (0%)
Title : Full
Language : English
Default : No
Forced : No
Text #6
ID : 14
Format : UTF-8
Codec ID : S_TEXT/UTF8
Codec ID/Info : UTF-8 Plain Text
Duration : 2 h 29 min
Bit rate : 68 b/s
Frame rate : 0.310 FPS
Count of elements : 2788
Stream size : 74.7 KiB (0%)
Title : SDH
Language : English
Default : No
Forced : No
Menu
00:00:00.000 : en:Chapter 01
00:08:00.647 : en:Chapter 02
00:13:36.733 : en:Chapter 03
00:16:08.676 : en:Chapter 04
00:18:44.999 : en:Chapter 05
00:20:37.778 : en:Chapter 06
00:23:58.771 : en:Chapter 07
00:26:44.978 : en:Chapter 08
00:30:44.593 : en:Chapter 09
00:34:45.625 : en:Chapter 10
00:40:35.683 : en:Chapter 11
00:49:51.989 : en:Chapter 12
00:52:15.674 : en:Chapter 13
00:57:18.143 : en:Chapter 14
00:59:43.538 : en:Chapter 15
01:02:58.483 : en:Chapter 16
01:05:37.892 : en:Chapter 17
01:09:12.315 : en:Chapter 18
01:13:55.723 : en:Chapter 19
01:19:53.956 : en:Chapter 20
01:26:47.035 : en:Chapter 21
01:31:00.121 : en:Chapter 22
01:39:22.957 : en:Chapter 23
01:44:25.926 : en:Chapter 24
01:51:45.198 : en:Chapter 25
01:55:09.277 : en:Chapter 26
01:59:15.940 : en:Chapter 27
02:03:21.394 : en:Chapter 28
02:07:49.453 : en:Chapter 29
02:11:48.901 : en:Chapter 30
02:20:14.656 : en:Chapter 31
02:21:22.057 : en:Chapter 32
02:22:58.737 : en:Chapter 33
02:29:14.070 : en:Chapter 34


Последний раз редактировалось: rastor (2023-07-25 23:00), всего редактировалось 4 раз(а)
Профиль  ЛС 
S.T.A.L.K.E.R.

Стаж: 5 лет
Сообщений: 38
Откуда: Уфа

Создавать темы S.T.A.L.K.E.R. написал(а)
17-Май-2023 09:17 (спустя 2 дня 16 часов)
Когда лицензия?
Профиль  ЛС 
Показать сообщения:     

Вы не можете начинать темы
Вы не можете отвечать на сообщения
Вы не можете редактировать свои сообщения
Вы не можете удалять свои сообщения
Вы не можете голосовать в опросах
Вы не можете прикреплять файлы к сообщениям
Вы не можете скачивать файлы

Текущее время: 20-Июл 15:01
Часовой пояс: UTC + 5