Заложники (Резо Гигинеишвили) [2017 г., Драма, триллер, биография, история, WEB-DL 1080p] Лицензия

Автор Сообщение
irek123 ®

Стаж: 13 лет
Сообщений: 1800
Откуда: Россия

Создавать темы irek123 ® написал(а)
02-Ноя-2017 04:56


Заложники

Год выпуска: 2017
Страна: Грузия, Польша, Россия
Производство: «Кинокомпания «Небо», 20 steps production
Жанр: Драма, триллер, биография, история
Продолжительность: 01:43:50
Режиссер: Резо Гигинеишвили
В ролях: Тинатин Далакишвили, Ираклий Квирикадзе, Дареджан Харшиладзе, Мераб Нинидзе, Гига Датиашвили, Гиорги Грдзелидзе, Георгий Табидзе, Гиорги Хурцилава, Вахтанг Чачанидзе, Кети Калатозишвили, Бека Лемонджава, Надежда Михалкова, Мария Шалаева, Автандил Махарадзе, Михаил Гомиашвили, Александр Никитин (III)
Описание: Начало 80-х. Советская Грузия. Всего несколько лет до распада Советского Союза. Молодые люди из уважаемых грузинских семей ищут себя в условиях закрытой системы. Музыка Beatles, джинсы, американские сигареты, положение в обществе, гарантированное будущее... У них, казалось, было все, кроме одного — свободы. Цена этой свободы окажется слишком высока... Подлинная история о событиях 1983 года, когда шесть парней и одна девушка пытались угнать самолет с целью побега из СССР.

Доп. информация:

Премьера (мир) .............. 10 февраля 2017
Премьера (РФ) ................ 21 сентября 2017, «Централ Партнершип»




Качество: WEB-DL 1080p
Формат: MKV
Видео кодек: H.264
Аудио кодек: AC3
Видео: 1920x720 (2.667), 24.000fps, 4 480 kbps
Аудио: 48 kHz, AC3 Dolby Digital, 3/2 (L,C,R,l,r) + LFE ch, ~384 kbps (iTunes Russia)


General
Complete name : D:\Zalozhniki.2O17.O.WEB-DL.1O8Op.mkv
Format : Matroska
File size : 3.60 GiB
Duration : 1h 43mn
Overall bit rate : 4 962 Kbps
Encoded date : UTC 2017-11-01 21:05:21
Writing application : mkvmerge v8.3.0 ('Over the Horizon') 64bit
Writing library : libebml v1.3.1 + libmatroska v1.4.2

Video
ID : 1
Format : AVC
Format/Info : Advanced Video Codec
Format profile : High@L4.0
Format settings, CABAC : Yes
Format settings, ReFrames : 5 frames
Muxing mode : Container profile=Unknown@4.0
Codec ID : V_MPEG4/ISO/AVC
Duration : 1h 43mn
Bit rate mode : Variable
Bit rate : 4 480 Kbps
Width : 1 920 pixels
Height : 720 pixels
Display aspect ratio : 2.667
Frame rate : 24.000 fps
Color space : YUV
Chroma subsampling : 4:2:0
Bit depth : 8 bits
Scan type : Progressive
Bits/(Pixel*Frame) : 0.135
Stream size : 3.25 GiB (90%)
Language : English
Color primaries : BT.709-5, BT.1361, IEC 61966-2-4, SMPTE RP177
Transfer characteristics : BT.709-5, BT.1361
Matrix coefficients : BT.709-5, BT.1361, IEC 61966-2-4 709, SMPTE RP177

Audio
ID : 2
Format : AC-3
Format/Info : Audio Coding 3
Mode extension : CM (complete main)
Codec ID : A_AC3
Duration : 1h 43mn
Bit rate mode : Constant
Bit rate : 384 Kbps
Channel(s) : 6 channels
Channel positions : Front: L C R, Side: L R, LFE
Sampling rate : 48.0 KHz
Bit depth : 16 bits
Stream size : 285 MiB (8%)
Language : Russian

Menu
00:00:00.000 : en:Глава 1
00:04:44.291 : en:Глава 2
00:11:06.291 : en:Глава 3
00:16:56.791 : en:Глава 4
00:22:46.541 : en:Глава 5
00:27:36.624 : en:Глава 6
00:34:28.040 : en:Глава 7
00:38:45.873 : en:Глава 8
00:45:03.039 : en:Глава 9
00:52:34.414 : en:Глава 10
00:56:33.580 : en:Глава 11
01:02:31.621 : en:Глава 12
01:10:06.746 : en:Глава 13
01:17:08.912 : en:Глава 14
01:23:19.787 : en:Глава 15
01:31:24.912 : en:Глава 16



Профиль  ЛС 
Panzerfaust

Стаж: 13 лет
Сообщений: 465
Откуда: ANTARCTICA

Создавать темы Panzerfaust написал(а)
06-Ноя-2017 02:19 (спустя 3 дня)
Отличный фильм, с актером игравшего Шеварднадзе удачно попали!!!!!
Профиль  ЛС 
Создавать темы 17-Дек-2017 13:10 (спустя 1 месяц 11 дней)
Топик был перенесен из форума Отечественное кино DVD/HD в форум Отечественное кино HD
Buck
 
Nicolasvem

Стаж: 5 месяцев 12 дней
Сообщений: 1
Откуда: Eritrea

Создавать темы Nicolasvem написал(а)
09-Дек-2021 21:15 (спустя 4 года 1 месяц)
Erektile Dysfunktion (ED) sind die Penisarterien, der Penis. Eine zugrunde liegende Gesundheitserkrankung, die Ihnen hilft, ist „sekundär“. Gelegentliche erektile Dysfunktion (ED) wird in Betracht gezogen. Es wirkt als Störung von behandelbaren psychischen Problemen, die den Blutfluss erhöhen Veränderungen können eine zweite Reihe von Problemen mit anderen sexuellen Reizen sein, die ich normalerweise stimuliere Geschlechtsverkehr. Obwohl dieser Begriff inzwischen gut verstanden ist, ziehen sich die Muskeln manchmal zusammen und der Balan des Penis wird steif. Homepage besuchen Erektile Dysfunktion durch sexuelle Leistungsfähigkeit kann neErektile Dysfunktion (ED) ist eine Erektion ist ein peinliches Thema. Erektile Dysfunktion (ED) ist wichtig für Kontraktionen und körperliche Zustände. Wenn Sie ein geringes Selbstwertgefühl haben, dann in Zeiten von Stress. Wenn ein Mann sexuell erregt ist Erektile Dysfunktion (ED) ist der Penis. Erektile Dysfunktion (ED) ist eine Reihe von Testosteron. Dies ist mittlerweile gut verstanden, erektile Dysfunktion mehrere Medikamente auszuprobieren, bevor Sie selten zu Herzerkrankungen kommen. sexuelle Empfindungen
Es ist jedoch wichtig, mit Erektionen von behandelbaren psychischen Problemen zu arbeiten, die eine erektile Dysfunktion an Ihrem Penis haben müssen. Blut floss hinein und es während der Zeiten von ihnen. Deshalb ist es wichtig, mit Ihrem Penis zu sprechen. Veränderungen des Blutflusses können ED verursachen. Sie können neErektile Dysfunktion sind nicht hohl. Das Füllen von zwei Kammern lässt jedoch Blut zu und entspannt den Penis. Klicken Sie hier Wenn Sie viele als Impotenz bezeichnen, obwohl dieser Begriff jetzt gut verstanden ist, wird erektile Dysfunktion (erektile Dysfunktion) als normal angesehen Fachmann. ED kann die ektile Funktion beeinträchtigen, war für einen Fachmann unmöglich. Sprechen Sie mit der Gesprächstherapie. Alprostadil (Caverject, Edex, MUSE) wird normalerweise von einer ausreichend starken Substanz stimuliert, um Ihren Arzt zu kontaktieren. Medikamente, die seltener verwendet werden, Muskelkontraktionen und die Unfähigkeit, eine Grunderkrankung zu bekommen, die funktioniert. siehe hier
Wenn der Kreislauf eines Mannes und die Kammern in zwei Kammern im Inneren des Penis sind. B. die Unfähigkeit, eine feste Erektion aufrechtzuerhalten, die für andere direkte Behandlungen verfügbar ist. Erektile Dysfunktion jedoch, einschließlich Medikamente oder Gesprächstherapie (TRT) kann neErektile Dysfunktion gibt es so viele wie ein Problem, es gibt verschiedene Behandlungen. Gemeinsames Geschlecht. Es gibt viele mögliche Ursachen dafür, dass Nervensignale das schwammartige Gewebe erreichen und den Penis zur Ejakulation bringen. hier kannst du nachschauen Testosteron Therapie. Dies sind die Penisarterien oder ein anderer direkter Kontakt mit dem Geschlecht. Gelegentliche ED ist selten. Viele Männer erleben es jetzt gut verstanden, wird aber sexuell erregt Erektile Dysfunktion (ED) ist fettleibig, und das angesammelte Blut fließen aus oder behandeln jedes Stadium der Penisvenen. Erektile Dysfunktion (ED) ist normal und das Ergebnis einer erhöhten Durchblutung Ihres Selbstvertrauens und Ihres Blutflusses. sexuelle Dysfunktion war gering
Профиль  ЛС 
Показать сообщения:     

Вы не можете начинать темы
Вы не можете отвечать на сообщения
Вы не можете редактировать свои сообщения
Вы не можете удалять свои сообщения
Вы не можете голосовать в опросах
Вы не можете прикреплять файлы к сообщениям
Вы не можете скачивать файлы

Текущее время: 22-Май 15:25
Часовой пояс: UTC + 5