Девятаев (Тимур Бекмамбетов, Сергей Трофимов) [2021 г., Военный, биография, боевик, история, драма, WEB-DL 1080p] Лицензия

Автор Сообщение
rastor ®

Стаж: 12 лет
Сообщений: 4902

Создавать темы rastor ® написал(а)
10-Июн-2021 23:17
Девятаев Год выпуска: 2021
Страна: Россия
Жанр: Военный, биография, боевик, история, драма
Продолжительность: 01:45:56
Перевод: Не требуется
Субтитры: Русские-Режиссер: Тимур Бекмамбетов, Сергей Трофимов-В ролях: Павел Прилучный, Павел Чинарёв, Алексей Филимонов, Евгений Серзин, Александр Лыков, Дмитрий Лысенков, Дарья Златопольская, Туре Рифенштайн, Патрик Йосвиг, Максим Ханжов, Олег Чугунов, Никита Кологривый, Тимофей Трибунцев, Антон Ксенев, Евгений Санников, Александр Петров, Денис Козинец, Алексей Красноцветов, Антон Бабичев, Татьяна Полонская, Евгений Волошин, Артём Драчёв, Ярослав Кузнецов-Описание: Лето 1944 года. Советские войска ведут наступление, но враг еще очень силен. Летчик-истребитель Михаил Девятаев попадает в плен. Ему предстоит сделать выбор — вернуться в небо, продолжив войну на стороне врага, или отправиться в концлагерь на остров Узедом. Отчаянный ас Девятаев выбирает третье — побег. Но с засекреченного острова, где идут испытания немецких крылатых ракет, нельзя убежать. Зато можно улететь — на аэродроме стоит новейший вражеский бомбардировщик с «оружием возмездия» Третьего рейха на борту. Улететь — и совершить самый дерзкий побег в военной истории.--Качество: WEB-DL 1080p
Формат: MKV
Видео кодек: H.264
Аудио кодек: AC3
Видео: 1920х1080 25fps 6144Kbps
Аудио: 48kHz 6ch 640Kbps

MediaInfo

Format : Matroska
Format version : Version 4
File size : 4.99 GiB
Duration : 1 h 45 min
Overall bit rate : 6 741 kb/s
Writing application : mkvmerge v58.0.0 ('Supper's Ready') 64-bit
Writing library : libebml v1.4.2 + libmatroska v1.6.4
Video
ID : 1
Format : AVC
Format/Info : Advanced Video Codec
Format profile : Baseline@L4
Format settings : 2 Ref Frames
Format settings, CABAC : No
Format settings, Reference frames : 2 frames
Format settings, GOP : M=1, N=25
Codec ID : V_MPEG4/ISO/AVC
Duration : 1 h 45 min
Bit rate mode : Constant
Bit rate : 6 144 kb/s
Width : 1 920 pixels
Height : 1 080 pixels
Display aspect ratio : 16:9
Frame rate mode : Constant
Frame rate : 25.000 FPS
Color space : YUV
Chroma subsampling : 4:2:0
Bit depth : 8 bits
Scan type : Progressive
Bits/(Pixel*Frame) : 0.119
Stream size : 4.51 GiB (90%)
Default : Yes
Forced : No
Audio
ID : 2
Format : AC-3
Format/Info : Audio Coding 3
Commercial name : Dolby Digital
Codec ID : A_AC3
Duration : 1 h 45 min
Bit rate mode : Constant
Bit rate : 640 kb/s
Channel(s) : 6 channels
Channel layout : L R C LFE Ls Rs
Sampling rate : 48.0 kHz
Frame rate : 31.250 FPS (1536 SPF)
Compression mode : Lossy
Stream size : 485 MiB (9%)
Language : Russian
Service kind : Complete Main
Default : Yes
Forced : No
Text
ID : 3
Format : UTF-8
Codec ID : S_TEXT/UTF8
Codec ID/Info : UTF-8 Plain Text
Duration : 1 h 10 min
Bit rate : 11 b/s
Count of elements : 119
Stream size : 5.81 KiB (0%)
Title : Forced
Language : Russian
Default : Yes
Forced : No
Профиль  ЛС 
SegaSSV

Стаж: 11 лет
Сообщений: 15
Откуда: УФА

Создавать темы SegaSSV написал(а)
29-Июн-2021 21:28 (спустя 18 дней)
rastor, Спасибо...
Профиль  ЛС 
Показать сообщения:     

Вы не можете начинать темы
Вы не можете отвечать на сообщения
Вы не можете редактировать свои сообщения
Вы не можете удалять свои сообщения
Вы не можете голосовать в опросах
Вы не можете прикреплять файлы к сообщениям
Вы не можете скачивать файлы

Текущее время: 05-Авг 22:38
Часовой пояс: UTC + 5