История игрушек 4 / Toy Story 4 (Джош Кули) [2019 г., Мультфильм, фэнтези, комедия, приключения, семейный, полнометражный, BDRip 1080p] Лицензия

Автор Сообщение
rastor ®

Стаж: 11 лет
Сообщений: 4428

Создавать темы rastor ® написал(а)
22-Сен-2019 15:54
История игрушек 4Toy Story 4 Год выпуска: 2019
Страна: США
Жанр: Мультфильм, фэнтези, комедия, приключения, семейный, полнометражный
Продолжительность: 01:40:07
Перевод:
*Профессиональный (полное дублирование)
*Профессиональный (многоголосый) HDRezka Studio
Субтитры: Русские, английские-Режиссер: Джош Кули-В ролях: Том Хэнкс, Тим Аллен, Энни Поттс, Тони Хейл, Кигэн-Майкл Ки, Мадлен МакГроу, Кристина Хендрикс, Джордан Пил, Киану Ривз, Элли Матсумура-Описание: Астронавт Базз, ковбой Вуди, пёс Слинки, тиранозавр Рекс и вся команда игрушек снова вместе, и они как никогда готовы к приключениям. С тех пор, как Энди поступил в колледж, игрушки поселились в доме своей новой хозяйки Бонни, которая вот-вот пойдет в детский сад. Первый день в детском саду положит начало череде событий, в которой найдется место и путешествиям с погонями, и знакомству с новыми игрушками, и встречам с некоторыми из старых друзей и даже романтической истории.--Качество: BDRip 1080p
Формат: MKV
Видео кодек: H.264
Аудио кодек: AC3
Видео: 1920x804 23.98fps 14131kbps
Аудио:
Аудио Дубляж: 48kHz 6ch 640kbps
Аудио MVO: 48kHz 2ch 192kbps
Аудио Eng: 48kHz 6ch 640kbps

MediaInfo

Format : Matroska
Format version : Version 4
File size : 10.7 GiB
Duration : 1 h 40 min
Overall bit rate : 15.2 Mb/s
Movie name : Toy Story 4 2019 from селезень
Encoded date : UTC 2019-10-18 07:44:59
Writing application : mkvmerge v22.0.0 ('At The End Of The World') 64-bit
Writing library : libebml v1.3.5 + libmatroska v1.4.8
Video
ID : 1
Format : AVC
Format/Info : Advanced Video Codec
Format profile : High@L4.1
Format settings : CABAC / 5 Ref Frames
Format settings, CABAC : Yes
Format settings, Reference : 5 frames
Codec ID : V_MPEG4/ISO/AVC
Duration : 1 h 40 min
Bit rate : 13.8 Mb/s
Width : 1 920 pixels
Height : 804 pixels
Display aspect ratio : 2.40:1
Frame rate mode : Constant
Frame rate : 23.976 (24000/1001) FPS
Color space : YUV
Chroma subsampling : 4:2:0
Bit depth : 8 bits
Scan type : Progressive
Bits/(Pixel*Frame) : 0.372
Stream size : 9.63 GiB (90%)
Title : MTeam
Writing library : x264 core 157 r2938 2b00a84 TnP@MTeam Mod
Encoding settings : cabac=1 / ref=5 / deblock=1:-3:-3 / analyse=0x3:0x133 / me=umh / subme=10 / psy=1 / psy_rd=1.05:0.00 / mixed_ref=1 / me_range=32 / chroma_me=1 / trellis=2 / 8x8dct=1 / cqm=0 / deadzone=21,11 / fast_pskip=0 / chroma_qp_offset=-2 / threads=12 / lookahead_threads=2 / sliced_threads=0 / nr=0 / decimate=0 / interlaced=0 / bluray_compat=0 / constrained_intra=0 / bframes=8 / b_pyramid=2 / b_adapt=2 / b_bias=0 / direct=3 / weightb=1 / open_gop=0 / weightp=2 / keyint=250 / keyint_min=24 / scenecut=40 / intra_refresh=0 / rc_lookahead=250 / rc=crf / mbtree=0 / crf=16.1 / qcomp=0.60 / qpmin=0 / qpmax=69 / qpstep=4 / vbv_maxrate=62500 / vbv_bufsize=78125 / crf_max=0.0 / nal_hrd=none / filler=0 / ip_ratio=1.30 / pb_ratio=1.20 / aq=3:0.80
Language : English
Default : Yes
Forced : No
Color range : Limited
Color primaries : BT.709
Matrix coefficients : BT.709
Audio #1
ID : 2
Format : AC-3
Format/Info : Audio Coding 3
Commercial name : Dolby Digital
Codec ID : A_AC3
Duration : 1 h 40 min
Bit rate mode : Constant
Bit rate : 640 kb/s
Channel(s) : 6 channels
Channel layout : L R C LFE Ls Rs
Sampling rate : 48.0 kHz
Frame rate : 31.250 FPS (1536 SPF)
Bit depth : 16 bits
Compression mode : Lossy
Stream size : 458 MiB (4%)
Title : Dub [License]
Language : Russian
Service kind : Complete Main
Default : Yes
Forced : Yes
Audio #2
ID : 3
Format : AC-3
Format/Info : Audio Coding 3
Commercial name : Dolby Digital
Codec ID : A_AC3
Duration : 1 h 40 min
Bit rate mode : Constant
Bit rate : 192 kb/s
Channel(s) : 2 channels
Channel layout : L R
Sampling rate : 48.0 kHz
Frame rate : 31.250 FPS (1536 SPF)
Bit depth : 16 bits
Compression mode : Lossy
Stream size : 137 MiB (1%)
Title : MVO [HDRezka Studio]
Language : Russian
Service kind : Complete Main
Default : No
Forced : No
Audio #3
ID : 4
Format : AC-3
Format/Info : Audio Coding 3
Commercial name : Dolby Digital
Codec ID : A_AC3
Duration : 1 h 40 min
Bit rate mode : Constant
Bit rate : 640 kb/s
Channel(s) : 6 channels
Channel layout : L R C LFE Ls Rs
Sampling rate : 48.0 kHz
Frame rate : 31.250 FPS (1536 SPF)
Bit depth : 16 bits
Compression mode : Lossy
Stream size : 458 MiB (4%)
Title : Original
Language : English
Service kind : Complete Main
Default : No
Forced : No
Text #1
ID : 5
Format : UTF-8
Codec ID : S_TEXT/UTF8
Codec ID/Info : UTF-8 Plain Text
Duration : 1 h 38 min
Bit rate : 0 b/s
Count of elements : 17
Stream size : 674 Bytes (0%)
Title : Forced
Language : Russian
Default : Yes
Forced : Yes
Text #2
ID : 6
Format : UTF-8
Codec ID : S_TEXT/UTF8
Codec ID/Info : UTF-8 Plain Text
Duration : 1 h 39 min
Bit rate : 106 b/s
Count of elements : 1656
Stream size : 77.2 KiB (0%)
Title : Full
Language : Russian
Default : No
Forced : No
Text #3
ID : 7
Format : UTF-8
Codec ID : S_TEXT/UTF8
Codec ID/Info : UTF-8 Plain Text
Duration : 1 h 39 min
Bit rate : 121 b/s
Count of elements : 2039
Stream size : 88.7 KiB (0%)
Title : SDH
Language : Russian
Default : No
Forced : No
Text #4
ID : 8
Format : UTF-8
Codec ID : S_TEXT/UTF8
Codec ID/Info : UTF-8 Plain Text
Duration : 1 h 39 min
Bit rate : 65 b/s
Count of elements : 1806
Stream size : 47.2 KiB (0%)
Title : Full
Language : English
Default : No
Forced : No
Menu
00:00:00.000 : en:Chapter 01
00:05:39.798 : en:Chapter 02
00:11:21.097 : en:Chapter 03
00:15:06.239 : en:Chapter 04
00:19:01.140 : en:Chapter 05
00:20:52.042 : en:Chapter 06
00:22:43.821 : en:Chapter 07
00:26:11.111 : en:Chapter 08
00:27:47.082 : en:Chapter 09
00:32:11.846 : en:Chapter 10
00:36:17.425 : en:Chapter 11
00:40:34.640 : en:Chapter 12
00:42:56.699 : en:Chapter 13
00:44:26.872 : en:Chapter 14
00:46:39.380 : en:Chapter 15
00:48:06.175 : en:Chapter 16
00:49:18.664 : en:Chapter 17
00:52:25.809 : en:Chapter 18
00:53:58.568 : en:Chapter 19
00:54:34.479 : en:Chapter 20
00:59:06.960 : en:Chapter 21
01:01:30.645 : en:Chapter 22
01:04:40.752 : en:Chapter 23
01:07:25.249 : en:Chapter 24
01:09:31.042 : en:Chapter 25
01:10:54.834 : en:Chapter 26
01:12:05.154 : en:Chapter 27
01:15:03.040 : en:Chapter 28
01:17:29.770 : en:Chapter 29
01:18:04.846 : en:Chapter 30
01:19:21.840 : en:Chapter 31
01:19:48.116 : en:Chapter 32
01:22:24.940 : en:Chapter 33
01:29:00.293 : en:Chapter 34


Последний раз редактировалось: rastor (2019-10-18 14:07), всего редактировалось 2 раз(а)
Профиль  ЛС 
Koston221

Стаж: 9 лет 3 месяца
Сообщений: 3
Откуда: Уфа

Создавать темы Koston221 написал(а)
26-Сен-2019 12:29 (спустя 3 дня)
Когда 3D выйдет?
Профиль  ЛС 
rastor ®

Стаж: 11 лет
Сообщений: 4428

Создавать темы rastor ® написал(а)
26-Сен-2019 17:26 (спустя 4 часа)
Торрент-файл обновлен на лицензию.
Профиль  ЛС 
Показать сообщения:     

Вы не можете начинать темы
Вы не можете отвечать на сообщения
Вы не можете редактировать свои сообщения
Вы не можете удалять свои сообщения
Вы не можете голосовать в опросах
Вы не можете прикреплять файлы к сообщениям
Вы не можете скачивать файлы

Текущее время: 12-Ноя 06:34
Часовой пояс: UTC + 5