Поцелуй Сквозь Стену (Вартан Акопян) [2011 г., Фантастика, Мелодрама, Комедия, DVD5(сжатый)]

Автор Сообщение
irek123 ®

Стаж: 13 лет
Сообщений: 1800
Откуда: Россия

Создавать темы irek123 ® написал(а)
20-Фев-2011 09:31
Поцелуй Сквозь Стену
«Любовь и... никакого мошенничества»


Год выпуска: 2011
Производство: Россия, ПЦ "Парадиз"
Жанр: Фантастика, Мелодрама, Комедия
Продолжительность: 01:26:26
Режиссер: Вартан Акопян (Платон)
Автор сценария: Амет Магометов (Платон)
В ролях: Антон Шагин (Кеша), Карина Андоленко (Алиса), Павел Воля (Растаман), Иван Охлобыстин (Бродяга), Александр Адабашьян (Ярило Ольгович), Сергей Газаров (Пилсудский), Светлана Немоляева (бабушка Алисы), Сосо Павлиашвили, Людмила Соловьева, Михаил Тарабукин, Андрей Фомин
Описание: Что нужно сделать, чтобы добиться любви дерзкой журналистки, да еще по имени Алиса? Подарить ей лютики? Сказать: «Алиса, лисичка моя». Подкатить на карете? Или тупо завалить ее деньгами и подарками? Пока Кеша, помощник знаменитого фокусника, ломает над этим голову, его увольняют с работы и он остается с двумя десятками в кармане и чувством, что жизнь не удалась. Да и те клянчит какой-то бродяга, обещая исполнить любое его желание. А после встречи с ним, Кеша осознает: Он умеет проходить сквозь стены! Его новый дар — путь к счастью. Но даже, если все стены мира — не помеха, как пробиться к сердцу любимой?
Доп. информация:

Дата мировой премьеры: 27 января 2011
Дата российской премьеры: 25 января 2011, «Парадиз»
Дата выхода DVD релиза: 24 февраля 2011, «Парадиз-ВC»


КиноПоиск.Ru: 4.981 (568)
IMDB.COM: 5.50 (6)


Релиз от:
Удалено: Заставки, предупреждения, Видеоклипы, Скоро на DVD, звуковая дорожка Аудио: Russian (Dolby AC3, 2 ch)
Оставлено: меню, звуковая дорожка Аудио: Russian (Dolby AC3, 6 ch)
Меню озвученное, статичное, на русском языке, с навигацией по эпизодам, неиспользуемые кнопки удалены. Обработано с помощью программ DVDRemakePro, Muxman, Photoshop, Rebuilder, CCE.
Видео сжато, ~ 12,8% сжатия (без учета ручного перераспределения битрейта за счет большего сжатия, конечных титров).
Работоспособность проверена на софтовом плеере VLC Media Player и бытовом HYUNDAI. Записано программой ImgBurn на DVD5+RW болванку.

Качество: DVD5 (сжатый)
Формат: DVD Video
Видео кодек: MPEG2
Аудио кодек: AC3
Видео: PAL 16:9 (720x576) VBR, Auto Letterboxed, 25.000 fps, 6 743 kbps, 0.650 Qf
Аудио: 48.0 KHz , AC3, 6 ch, 448 kbps

General
Complete name : D:\0-Свои раздачи\Поцелуй сквозь стену_2011_DVD5\VIDEO_TS\VTS_01_1.VOB
Format : MPEG-PS
File size : 1 024 MiB
Duration : 19mn 30s
Overall bit rate : 7 337 Kbps

Video
ID : 224 (0xE0)
Format : MPEG Video
Format version : Version 2
Format profile : Main@Main
Format settings, BVOP : Yes
Format settings, Matrix : Default
Duration : 19mn 30s
Bit rate mode : Variable
Bit rate : 6 743 Kbps
Width : 720 pixels
Height : 576 pixels
Display aspect ratio : 2.35:1
Frame rate : 25.000 fps
Standard : PAL
Color space : YUV
Chroma subsampling : 4:2:0
Bit depth : 8 bits
Bits/(Pixel*Frame) : 0.650
Stream size : 941 MiB (92%)

Audio
ID : 128 (0x80)
Format : AC-3
Format/Info : Audio Coding 3
Mode extension : CM (complete main)
Duration : 19mn 30s
Bit rate mode : Constant
Bit rate : 448 Kbps
Channel(s) : 6 channels
Channel positions : Front: L C R, Side: L R, LFE
Sampling rate : 48.0 KHz
Bit depth : 16 bits
Stream size : 62.5 MiB (6%)

Menu










Последний раз редактировалось: irek123 (2011-04-16 11:18), всего редактировалось 7 раз(а)
Профиль  ЛС 
irek123 ®

Стаж: 13 лет
Сообщений: 1800
Откуда: Россия

Создавать темы irek123 ® написал(а)
20-Фев-2011 10:58 (спустя 1 час 26 минут)
Приятного просмотра
Профиль  ЛС 
Tromg

Стаж: 11 лет
Сообщений: 9
Откуда: Уфа

Создавать темы Tromg написал(а)
21-Фев-2011 15:17 (спустя 1 день 4 часа)
irek123, спасибо!
Профиль  ЛС 
*Stigmata*

Стаж: 13 лет
Сообщений: 80
Откуда: Уфа

Создавать темы *Stigmata* написал(а)
21-Фев-2011 21:20 (спустя 6 часов)
irek123
"Cриншоты меню" исправь))
Профиль  ЛС 
Создавать темы 25-Фев-2011 08:59 (спустя 3 дня)
Топик был перенесен из форума Отечественное кино в форум DVD

duxil
 
irek123 ®

Стаж: 13 лет
Сообщений: 1800
Откуда: Россия

Создавать темы irek123 ® написал(а)
11-Мар-2011 12:22 (спустя 17 дней)
*Stigmata*
Спасибо.
Профиль  ЛС 
irek123 ®

Стаж: 13 лет
Сообщений: 1800
Откуда: Россия

Создавать темы irek123 ® написал(а)
22-Дек-2012 01:51 (спустя 1 год 9 месяцев)
С раздачи ушел.
Профиль  ЛС 
Показать сообщения:     

Вы не можете начинать темы
Вы не можете отвечать на сообщения
Вы не можете редактировать свои сообщения
Вы не можете удалять свои сообщения
Вы не можете голосовать в опросах
Вы не можете прикреплять файлы к сообщениям
Вы не можете скачивать файлы

Текущее время: 28-Сен 16:44
Часовой пояс: UTC + 5