Тень Чикатило / Сезон: 1 / Серии: 1-8 из 8 (Сарик Андреасян, Давид Дадунашвили) [2024, триллер, детектив, драма, WEBRip-AVC]

Автор Сообщение
sergoufaVDV ®

Стаж: 8 лет 5 месяцев
Сообщений: 1220
Откуда: Нагаево

Создавать темы sergoufaVDV ® написал(а)
23-Май-2024 21:46
Тень Чикатило
Год выпуска: 2024
Производство: студия К.Б.А.
Жанр: триллер, детектив, драма
Продолжительность: ~ 00:55:00
Субтитры: нет
Режиссёр: Сарик Андреасян, Давид Дадунашвили
В ролях: Фёдор Лавров, Николай Козак, Дмитрий Власкин, Юлия Афанасьева, Евгений Шириков, Олег Каменщиков, Дмитрий Нагиев, Мария Ахметзянова, Георгий Мартиросьян, Анна Бегунова, Валерия Богданова, Дарья Бурлюкало
Описание: Из-за присущей ему хитрости, изворотливости и доступа к милицейским архивам и базам данных Попцову удается в течение многих лет избегать наказания, наводя ужас на всю Иркутскую область. Он постепенно превращается в полумистического персонажа, неуловимого демона, от которого нет спасения. И все же оперативники во главе с Ковалевым, пройдя через череду сложных жизненных ситуаций, выйдут на след убийцы, остановив страшный конвейер смерти.

Реклама: Нет
Качество: WEBRip-AVC
Формат: MKV
Видео кодек: H.264
Аудио кодек: AC3
Видео: MPEG-4 AVC Video(х264),1024x428, 25fps,1600 Kbps,bit/pixel 0.146
Аудио: AC3 48,0Hz, stereo, 384 kbps,6 ch

MI

Общее
Уникальный идентификатор : 62741670382066379952239596424386984940 (0x2F339B2E4865D273FF02CCBFF9CA3BEC)
Полное имя : D:\Тень Чикатило\01 серия_Тень Чикатило_rip by_Aleksan55.mkv
Формат : Matroska
Версия формата : Version 4
Размер файла : 793 Мбайт
Продолжительность : 55 м. 48 с.
Общий поток : 1987 Кбит/сек
Программа кодирования : XviD4PSP 8.0.126
Библиотека кодирования : Lavf59.16.100
ErrorDetectionType : Per level 1
ENCODING_INFO : MATROSKA,WEBM > MKV Пользовательский
Видео
Идентификатор : 1
Формат : AVC
Формат/Информация : Advanced Video Codec
Профиль формата : High@L4.1
Настройки формата : CABAC / 9 Ref Frames
Параметр CABAC формата : Да
Параметр RefFrames формата : 9 кадров
Идентификатор кодека : V_MPEG4/ISO/AVC
Продолжительность : 55 м. 48 с.
Битрейт : 1600 Кбит/сек
Ширина : 1024 пикселя
Высота : 428 пикселей
Соотношение сторон : 2,40:1
Режим частоты кадров : Постоянный
Частота кадров : 25,000 кадров/сек
Цветовое пространство : YUV
Субдискретизация насыщенности : 4:2:0
Битовая глубина : 8 бит
Тип развёртки : Прогрессивная
Бит/(Пиксели*Кадры) : 0.146
Размер потока : 624 Мбайт (79%)
Библиотека кодирования : x264 core 163 r3060 5db6aa6
Настройки программы : cabac=1 / ref=9 / deblock=1:-2:-2 / analyse=0x3:0x133 / me=umh / subme=9 / psy=1 / psy_rd=1.00:0.20 / mixed_ref=1 / me_range=9 / chroma_me=1 / trellis=1 / 8x8dct=1 / cqm=0 / deadzone=21,11 / fast_pskip=1 / chroma_qp_offset=-3 / threads=18 / lookahead_threads=1 / sliced_threads=0 / nr=0 / decimate=1 / interlaced=0 / bluray_compat=0 / constrained_intra=0 / bframes=9 / b_pyramid=2 / b_adapt=1 / b_bias=9 / direct=1 / weightb=1 / open_gop=0 / weightp=2 / keyint=250 / keyint_min=25 / scenecut=40 / intra_refresh=0 / rc_lookahead=40 / rc=2pass / mbtree=1 / bitrate=1600 / ratetol=1.0 / qcomp=0.60 / qpmin=1 / qpmax=69 / qpstep=6 / cplxblur=20.0 / qblur=0.5 / ip_ratio=1.40 / aq=1:1.00
Язык : Russian
Default : Да
Forced : Нет
Цветовой диапазон : Limited
Основные цвета : BT.709
Характеристики трансфера : BT.709
Коэффициенты матрицы : BT.709
ENCODING_INFO : H264 > X264 VBR-2P 1600kbps HQ
Аудио
Идентификатор : 2
Формат : AC-3
Формат/Информация : Audio Coding 3
Коммерческое название : Dolby Digital
Идентификатор кодека : A_AC3
Продолжительность : 55 м. 48 с.
Вид битрейта : Постоянный
Битрейт : 384 Кбит/сек
Каналы : 6 каналов
ChannelLayout : L R C LFE Ls Rs
Частота : 48,0 КГц
Частота кадров : 31,250 кадров/сек (1536 SPF)
Метод сжатия : С потерями
Размер потока : 153 Мбайт (19%)
Язык : Russian
ServiceKind/String : Complete Main
Default : Да
Forced : Нет
ENCODING_INFO : AC3 > COPY Безопасное
Скриншоты:


Предыдущие и альтернативные раздачи
Профиль  ЛС 
Показать сообщения:     

Вы не можете начинать темы
Вы не можете отвечать на сообщения
Вы не можете редактировать свои сообщения
Вы не можете удалять свои сообщения
Вы не можете голосовать в опросах
Вы не можете прикреплять файлы к сообщениям
Вы не можете скачивать файлы

Текущее время: 15-Июн 02:18
Часовой пояс: UTC + 5